  0
SECTION
  2
HEADER
  9
$ACADVER
  1
AC1004
  9
$ANGBASE
 50
0.000000
  9
$ANGDIR
 70
     0
  9
$ATTDIA
 70
     0
  9
$ATTMODE
 70
     1
  9
$ATTREQ
 70
     1
  9
$AUNITS
 70
     0
  9
$AUPREC
 70
     0
  9
$AXISMODE
 70
     0
  9
$AXISUNIT
 10
0.000000
 20
0.000000
  9
$BLIPMODE
 70
     1
  9
$CECOLOR
 62
   256
  9
$CELTYPE
  6
BYLAYER
  9
$CHAMFERA
 40
0.000000
  9
$CHAMFERB
 40
0.000000
  9
$CLAYER
  8
0
  9
$COORDS
 70
     0
  9
$DIMALT
 70
     0
  9
$DIMALTD
 70
     2
  9
$DIMALTF
 40
25.400000
  9
$DIMAPOST
  1

  9
$DIMASO
 70
     1
  9
$DIMASZ
 40
0.153877
  9
$DIMBLK
  1

  9
$DIMBLK1
  1

  9
$DIMBLK2
  1

  9
$DIMCEN
 40
9.000000E-02
  9
$DIMDLE
 40
0.000000
  9
$DIMDLI
 40
0.380000
  9
$DIMEXE
 40
0.150000
  9
$DIMEXO
 40
0.100000
  9
$DIMLFAC
 40
1.000000
  9
$DIMLIM
 70
     0
  9
$DIMPOST
  1

  9
$DIMRND
 40
0.000000
  9
$DIMSCALE
 40
1.000000
  9
$DIMSE1
 70
     0
  9
$DIMSE2
 70
     0
  9
$DIMSHO
 70
     0
  9
$DIMTAD
 70
     0
  9
$DIMTIH
 70
     0
  9
$DIMTM
 40
0.000000
  9
$DIMTOH
 70
     1
  9
$DIMTOL
 70
     0
  9
$DIMTP
 40
0.000000
  9
$DIMTSZ
 40
0.000000
  9
$DIMTXT
 40
0.156000
  9
$DIMZIN
 70
     0
  9
$DRAGMODE
 70
     1
  9
$ELEVATION
 40
0.000000
  9
$EXTMAX
 10
17.564484
 20
5.852908
 30
0.000000
  9
$EXTMIN
 10
-4.150843
 20
-5.754739
 30
0.000000
  9
$FASTZOOM
 70
     1
  9
$FILLETRAD
 40
6.250000E-02
  9
$FILLMODE
 70
     1
  9
$GRIDMODE
 70
     0
  9
$GRIDUNIT
 10
0.000000
 20
0.000000
  9
$INSBASE
 10
0.000000
 20
0.000000
 30
0.000000
  9
$LIMCHECK
 70
     0
  9
$LIMMAX
 10
17.564484
 20
5.852908
  9
$LIMMIN
 10
-4.150843
 20
-5.754739
  9
$LTSCALE
 40
1.000000
  9
$LUNITS
 70
     2
  9
$LUPREC
 70
     3
  9
$MEASUREMENT
 70
     0
  9
$MENU
  1
ACAD
  9
$MIRRTEXT
 70
     0
  9
$ORTHOMODE
 70
     0
  9
$OSMODE
 70
     0
  9
$PDMODE
 70
     0
  9
$PDSIZE
 40
0.000000
  9
$PLINEWID
 40
0.000000
  9
$PROXYGRAPHICS
 70
     0
  9
$QTEXTMODE
 70
     0
  9
$REGENMODE
 70
     1
  9
$SKETCHINC
 40
0.100000
  9
$SKPOLY
 70
     0
  9
$SNAPANG
 50
0.000000
  9
$SNAPBASE
 10
0.000000
 20
0.000000
  9
$SNAPISOPAIR
 70
     0
  9
$SNAPMODE
 70
     0
  9
$SNAPSTYLE
 70
     0
  9
$SNAPUNIT
 10
1.000000
 20
1.000000
  9
$SPLFRAME
 70
     0
  9
$SPLINESEGS
 70
     8
  9
$TDCREATE
 40
2451761.413356
  9
$TDINDWG
 40
0.000000
  9
$TDUPDATE
 40
2451761.413356
  9
$TDUSRTIMER
 40
0.000000
  9
$TEXTSIZE
 40
0.156000
  9
$TEXTSTYLE
  7
STANDARD
  9
$THICKNESS
 40
0.000000
  9
$TRACEWID
 40
5.000000E-02
  9
$USERI1
 70
     0
  9
$USERI2
 70
     0
  9
$USERI3
 70
     0
  9
$USERI4
 70
     0
  9
$USERI5
 70
     0
  9
$USERR1
 40
0.000000
  9
$USERR2
 40
0.000000
  9
$USERR3
 40
0.000000
  9
$USERR4
 40
0.000000
  9
$USERR5
 40
0.000000
  9
$USRTIMER
 70
     1
  9
$VIEWCTR
 10
6.706820
 20
4.908466E-02
  9
$VIEWDIR
 10
0.000000
 20
0.000000
 30
1.000000
  9
$VIEWSIZE
 40
11.607647
  0
ENDSEC
  0
SECTION
  2
TABLES
  0
TABLE
  2
LTYPE
 70
     4
  0
LTYPE
  2
SOLID
  3
Solid
 70
    64
 72
    65
 73
     0
 40
0.000000
  0
LTYPE
  2
CENTERLINE
  3
Centerline
 70
    64
 72
    65
 73
     4
 40
1.000000
 49
0.750000
 49
-6.250000E-02
 49
0.125000
 49
-6.250000E-02
  0
LTYPE
  2
CONSTRUCTION
  3
Construction
 70
    64
 72
    65
 73
     2
 40
4.000000E-02
 49
1.000000E-02
 49
-3.000000E-02
  0
LTYPE
  2
GAP
  3
Gap
 70
    64
 72
    65
 73
     3
 40
100.060000
 49
0.000000
 49
-6.000000E-02
 49
100.000000
  0
ENDTAB
  0
TABLE
  2
LAYER
 70
     3
  0
LAYER
  2
Layer0
 70
     0
  6
SOLID
 62
     2
  0
LAYER
  2
Layer85
 70
     0
  6
SOLID
 62
     6
  0
LAYER
  2
Layer100
 70
     0
  6
SOLID
 62
    30
  0
ENDTAB
  0
TABLE
  2
STYLE
 70
     1
  0
STYLE
  2
STANDARD
  3
txt
  4

 40
0.000000
 41
1.000000
 42
0.125000
 50
0.000000
 70
     0
 71
     0
  0
ENDTAB
  0
ENDSEC
  0
SECTION
  2
BLOCKS
  0
BLOCK
  8
Layer0
  2
*D0
 70
     1
 10
0.000000
 20
0.000000
  0
SOLID
  8
Layer0
 62
     0
 10
6.127462
 20
-3.182166
 11
6.066594
 21
-3.182166
 12
6.097028
 22
-3.335168
 13
6.097028
 23
-3.335168
  0
LINE
  8
Layer0
 10
6.097028
 20
-3.335168
 11
6.097028
 21
-2.391466
  0
SOLID
  8
Layer0
 62
     0
 10
6.066594
 20
-1.693170
 11
6.127462
 21
-1.693170
 12
6.097028
 22
-1.540168
 13
6.097028
 23
-1.540168
  0
LINE
  8
Layer0
 10
6.097028
 20
-1.540168
 11
6.097028
 21
-2.141466
  0
LINE
  8
Layer0
  6
GAP
 10
7.491204
 20
-3.335168
 11
5.947028
 21
-3.335168
  0
LINE
  8
Layer0
  6
GAP
 10
8.047205
 20
-1.540168
 11
5.947028
 21
-1.540168
  0
TEXT
  8
Layer0
 10
5.863740
 20
-2.328966
 40
0.125000
  1
1.80
 72
     5
 11
6.330315
 21
-2.328966
  0
ENDBLK
  8
Layer0
  0
BLOCK
  8
Layer0
  2
*D1
 70
     1
 10
0.000000
 20
0.000000
  0
SOLID
  8
Layer0
 62
     0
 10
6.518508
 20
-3.182166
 11
6.457640
 21
-3.182166
 12
6.488074
 22
-3.335168
 13
6.488074
 23
-3.335168
  0
LINE
  8
Layer0
 10
6.488074
 20
-3.335168
 11
6.488074
 21
-2.683573
  0
SOLID
  8
Layer0
 62
     0
 10
6.457640
 20
-1.953171
 11
6.518508
 21
-1.953171
 12
6.488074
 22
-1.800168
 13
6.488074
 23
-1.800168
  0
LINE
  8
Layer0
 10
6.488074
 20
-1.800168
 11
6.488074
 21
-2.433573
  0
LINE
  8
Layer0
  6
GAP
 10
7.491204
 20
-3.335168
 11
6.338074
 21
-3.335168
  0
LINE
  8
Layer0
  6
GAP
 10
8.047205
 20
-1.800168
 11
6.338074
 21
-1.800168
  0
TEXT
  8
Layer0
 10
6.254786
 20
-2.621073
 40
0.125000
  1
1.53
 72
     5
 11
6.721362
 21
-2.621073
  0
ENDBLK
  8
Layer0
  0
BLOCK
  8
Layer0
  2
*D2
 70
     1
 10
0.000000
 20
0.000000
  0
SOLID
  8
Layer0
 62
     0
 10
5.665744
 20
-3.182166
 11
5.604876
 21
-3.182166
 12
5.635310
 22
-3.335168
 13
5.635310
 23
-3.335168
  0
LINE
  8
Layer0
 10
5.635310
 20
-3.335168
 11
5.635310
 21
-2.033399
  0
SOLID
  8
Layer0
 62
     0
 10
5.604876
 20
-0.863171
 11
5.665744
 21
-0.863171
 12
5.635310
 22
-0.710168
 13
5.635310
 23
-0.710168
  0
LINE
  8
Layer0
 10
5.635310
 20
-0.710168
 11
5.635310
 21
-1.783399
  0
LINE
  8
Layer0
  6
GAP
 10
7.491204
 20
-3.335168
 11
5.485310
 21
-3.335168
  0
LINE
  8
Layer0
  6
GAP
 10
7.418704
 20
-0.710168
 11
5.485310
 21
-0.710168
  0
TEXT
  8
Layer0
 10
5.402022
 20
-1.970899
 40
0.125000
  1
2.63
 72
     5
 11
5.868598
 21
-1.970899
  0
ENDBLK
  8
Layer0
  0
BLOCK
  8
Layer0
  2
*D3
 70
     1
 10
0.000000
 20
0.000000
  0
SOLID
  8
Layer0
 62
     0
 10
6.909555
 20
-3.182166
 11
6.848687
 21
-3.182166
 12
6.879121
 22
-3.335168
 13
6.879121
 23
-3.335168
  0
LINE
  8
Layer0
 10
6.879121
 20
-3.335168
 11
6.879121
 21
-2.966258
  0
SOLID
  8
Layer0
 62
     0
 10
6.848687
 20
-2.213170
 11
6.909555
 21
-2.213170
 12
6.879121
 22
-2.060168
 13
6.879121
 23
-2.060168
  0
LINE
  8
Layer0
 10
6.879121
 20
-2.060168
 11
6.879121
 21
-2.716258
  0
LINE
  8
Layer0
  6
GAP
 10
7.491204
 20
-3.335168
 11
6.729121
 21
-3.335168
  0
LINE
  8
Layer0
  6
GAP
 10
8.047205
 20
-2.060168
 11
6.729121
 21
-2.060168
  0
TEXT
  8
Layer0
 10
6.645833
 20
-2.903758
 40
0.125000
  1
1.28
 72
     5
 11
7.112409
 21
-2.903758
  0
ENDBLK
  8
Layer0
  0
BLOCK
  8
Layer0
  2
*D4
 70
     1
 10
0.000000
 20
0.000000
  0
SOLID
  8
Layer0
 62
     0
 10
1.557036
 20
-3.585461
 11
1.557036
 21
-3.524592
 12
1.404034
 22
-3.555027
 13
1.404034
 23
-3.555027
  0
LINE
  8
Layer0
 10
1.404034
 20
-3.555027
 11
2.743505
 21
-3.555026
  0
SOLID
  8
Layer0
 62
     0
 10
4.731438
 20
-3.524592
 11
4.731438
 21
-3.585460
 12
4.884440
 22
-3.555026
 13
4.884440
 23
-3.555026
  0
LINE
  8
Layer0
 10
4.884440
 20
-3.555026
 11
3.335080
 21
-3.555026
  0
LINE
  8
Layer0
  6
GAP
 10
1.404034
 20
-3.400000
 11
1.404034
 21
-3.705027
  0
LINE
  8
Layer0
  6
GAP
 10
4.884440
 20
-3.400000
 11
4.884440
 21
-3.705026
  0
TEXT
  8
Layer0
 10
2.806005
 20
-3.617526
 40
0.125000
  1
3.48
 72
     5
 11
3.272580
 21
-3.617526
  0
ENDBLK
  8
Layer0
  0
BLOCK
  8
Layer0
  2
*D5
 70
     1
 10
0.000000
 20
0.000000
  0
SOLID
  8
Layer0
 62
     0
 10
4.356517E-02
 20
-3.146997
 11
-1.730300E-02
 21
-3.146997
 12
1.313108E-02
 22
-3.300000
 13
1.313108E-02
 23
-3.300000
  0
LINE
  8
Layer0
 10
1.313108E-02
 20
-3.300000
 11
1.313114E-02
 21
-1.886017
  0
SOLID
  8
Layer0
 62
     0
 10
-1.730290E-02
 20
-0.723002
 11
4.356528E-02
 21
-0.723002
 12
1.313120E-02
 22
-0.570000
 13
1.313120E-02
 23
-0.570000
  0
LINE
  8
Layer0
 10
1.313120E-02
 20
-0.570000
 11
1.313115E-02
 21
-1.636017
  0
LINE
  8
Layer0
  6
GAP
 10
1.304034
 20
-3.300000
 11
-0.136869
 21
-3.300000
  0
LINE
  8
Layer0
  6
GAP
 10
1.327859
 20
-0.570000
 11
-0.136869
 21
-0.570000
  0
TEXT
  8
Layer0
 10
-0.220157
 20
-1.823517
 40
0.125000
  1
2.73
 72
     5
 11
0.246419
 21
-1.823517
  0
ENDBLK
  8
Layer0
  0
BLOCK
  8
Layer0
  2
*D6
 70
     1
 10
0.000000
 20
0.000000
  0
SOLID
  8
Layer0
 62
     0
 10
0.527016
 20
-3.146997
 11
0.466148
 21
-3.146997
 12
0.496582
 22
-3.300000
 13
0.496582
 23
-3.300000
  0
LINE
  8
Layer0
 10
0.496582
 20
-3.300000
 11
0.496582
 21
-2.745649
  0
SOLID
  8
Layer0
 62
     0
 10
0.466148
 20
-2.171003
 11
0.527016
 21
-2.171003
 12
0.496582
 22
-2.018000
 13
0.496582
 23
-2.018000
  0
LINE
  8
Layer0
 10
0.496582
 20
-2.018000
 11
0.496582
 21
-2.495649
  0
LINE
  8
Layer0
  6
GAP
 10
1.304034
 20
-3.300000
 11
0.346582
 21
-3.300000
  0
LINE
  8
Layer0
  6
GAP
 10
2.274441
 20
-2.018000
 11
0.346582
 21
-2.018000
  0
TEXT
  8
Layer0
 10
0.263295
 20
-2.683149
 40
0.125000
  1
1.28
 72
     5
 11
0.729870
 21
-2.683149
  0
ENDBLK
  8
Layer0
  0
BLOCK
  8
Layer0
  2
*D7
 70
     1
 10
0.000000
 20
0.000000
  0
SOLID
  8
Layer0
 62
     0
 10
7.271558
 20
4.044003
 11
7.210690
 21
4.044003
 12
7.241124
 22
3.891001
 13
7.241124
 23
3.891001
  0
LINE
  8
Layer0
 10
7.241124
 20
3.891001
 11
7.241124
 21
4.291001
  0
SOLID
  8
Layer0
 62
     0
 10
7.210690
 20
3.331998
 11
7.271558
 21
3.331998
 12
7.241124
 22
3.485001
 13
7.241124
 23
3.485001
  0
LINE
  8
Layer0
 10
7.241124
 20
3.485001
 11
7.241124
 21
3.109929
  0
LINE
  8
Layer0
  6
GAP
 10
4.259831
 20
3.891001
 11
7.391124
 21
3.891001
  0
LINE
  8
Layer0
  6
GAP
 10
4.259831
 20
3.485001
 11
7.391124
 21
3.485001
  0
TEXT
  8
Layer0
 10
6.882836
 20
2.922429
 40
0.125000
  1
.41
 72
     5
 11
7.224411
 21
2.922429
  0
TEXT
  8
Layer0
 10
6.882836
 20
2.734929
 40
0.125000
  1
TYP
 72
     5
 11
7.224411
 21
2.734929
  0
TEXT
  8
Layer0
 10
6.882836
 20
2.547429
 40
0.125000
  1
4 PLCS
 72
     5
 11
7.599411
 21
2.547429
  0
ENDBLK
  8
Layer0
  0
BLOCK
  8
Layer0
  2
*D8
 70
     1
 10
0.000000
 20
0.000000
  0
SOLID
  8
Layer0
 62
     0
 10
5.912019
 20
3.950003
 11
5.851151
 21
3.950003
 12
5.881585
 22
3.797001
 13
5.881585
 23
3.797001
  0
LINE
  8
Layer0
 10
5.881585
 20
3.797001
 11
5.881585
 21
4.197001
  0
SOLID
  8
Layer0
 62
     0
 10
5.851151
 20
3.425998
 11
5.912019
 21
3.425998
 12
5.881585
 22
3.579000
 13
5.881585
 23
3.579000
  0
LINE
  8
Layer0
 10
5.881585
 20
3.579000
 11
5.881585
 21
3.242567
  0
LINE
  8
Layer0
  6
GAP
 10
4.259831
 20
3.797001
 11
6.031585
 21
3.797001
  0
LINE
  8
Layer0
  6
GAP
 10
4.259831
 20
3.579000
 11
6.031585
 21
3.579000
  0
TEXT
  8
Layer0
 10
5.148297
 20
3.055067
 40
0.125000
  1
.22
 72
     5
 11
5.489872
 21
3.055067
  0
TEXT
  8
Layer0
 10
5.523297
 20
3.055067
 40
0.125000
  1
 X .13 DP
 72
     5
 11
6.614872
 21
3.055067
  0
TEXT
  8
Layer0
 10
5.148297
 20
2.867567
 40
0.125000
  1
TYP
 72
     5
 11
5.489872
 21
2.867567
  0
TEXT
  8
Layer0
 10
5.148297
 20
2.680067
 40
0.125000
  1
4 PLCS
 72
     5
 11
5.864872
 21
2.680067
  0
ENDBLK
  8
Layer0
  0
BLOCK
  8
Layer0
  2
*D9
 70
     1
 10
0.000000
 20
0.000000
  0
SOLID
  8
Layer0
 62
     0
 10
2.071828
 20
-0.183247
 11
2.071828
 21
-0.244115
 12
2.224831
 22
-0.213681
 13
2.224831
 23
-0.213681
  0
LINE
  8
Layer0
 10
2.224831
 20
-0.213681
 11
1.495448
 21
-0.213681
  0
SOLID
  8
Layer0
 62
     0
 10
2.677834
 20
-0.244115
 11
2.677834
 21
-0.183247
 12
2.524831
 22
-0.213681
 13
2.524831
 23
-0.213681
  0
LINE
  8
Layer0
 10
2.524831
 20
-0.213681
 11
2.924831
 21
-0.213681
  0
LINE
  8
Layer0
  6
GAP
 10
2.224831
 20
-0.199779
 11
2.224831
 21
-0.363681
  0
LINE
  8
Layer0
  6
GAP
 10
2.524831
 20
-0.192676
 11
2.524831
 21
-0.363681
  0
TEXT
  8
Layer0
 10
0.591373
 20
-0.276181
 40
0.125000
  1
.30
 72
     5
 11
0.932948
 21
-0.276181
  0
TEXT
  8
Layer0
 10
0.966373
 20
-0.276181
 40
0.125000
  1
 TYP
 72
     5
 11
1.432948
 21
-0.276181
  0
TEXT
  8
Layer0
 10
0.591373
 20
-0.463681
 40
0.125000
  1
4 PLCS
 72
     5
 11
1.307948
 21
-0.463681
  0
ENDBLK
  8
Layer0
  0
BLOCK
  8
Layer0
  2
*D10
 70
     1
 10
0.000000
 20
0.000000
  0
SOLID
  8
Layer0
 62
     0
 10
2.527833
 20
4.319233
 11
2.527833
 21
4.380102
 12
2.374830
 22
4.349668
 13
2.374830
 23
4.349668
  0
LINE
  8
Layer0
 10
2.374830
 20
4.349668
 11
2.863615
 21
4.349668
  0
SOLID
  8
Layer0
 62
     0
 10
3.856828
 20
4.380102
 11
3.856828
 21
4.319233
 12
4.009830
 22
4.349668
 13
4.009830
 23
4.349668
  0
LINE
  8
Layer0
 10
4.009830
 20
4.349668
 11
3.455190
 21
4.349668
  0
LINE
  8
Layer0
  6
GAP
 10
2.374830
 20
4.068843
 11
2.374830
 21
4.499668
  0
LINE
  8
Layer0
  6
GAP
 10
4.009830
 20
4.068843
 11
4.009830
 21
4.499668
  0
TEXT
  8
Layer0
 10
2.926115
 20
4.287168
 40
0.125000
  1
1.63
 72
     5
 11
3.392690
 21
4.287168
  0
ENDBLK
  8
Layer0
  0
BLOCK
  8
Layer0
  2
*D11
 70
     1
 10
0.000000
 20
0.000000
  0
SOLID
  8
Layer0
 62
     0
 10
1.652833
 20
4.319233
 11
1.652833
 21
4.380102
 12
1.499831
 22
4.349668
 13
1.499831
 23
4.349668
  0
LINE
  8
Layer0
 10
1.499831
 20
4.349668
 11
1.641237
 21
4.349668
  0
SOLID
  8
Layer0
 62
     0
 10
2.221828
 20
4.380102
 11
2.221828
 21
4.319233
 12
2.374830
 22
4.349668
 13
2.374830
 23
4.349668
  0
LINE
  8
Layer0
 10
2.374830
 20
4.349668
 11
2.107812
 21
4.349668
  0
LINE
  8
Layer0
  6
GAP
 10
1.499831
 20
4.100000
 11
1.499831
 21
4.499668
  0
LINE
  8
Layer0
  6
GAP
 10
2.374830
 20
4.068843
 11
2.374830
 21
4.499668
  0
TEXT
  8
Layer0
 10
1.703737
 20
4.287168
 40
0.125000
  1
.87
 72
     5
 11
2.045312
 21
4.287168
  0
ENDBLK
  8
Layer0
  0
BLOCK
  8
Layer0
  2
*D12
 70
     1
 10
0.000000
 20
0.000000
  0
SOLID
  8
Layer0
 62
     0
 10
-1.730270E-02
 20
3.846998
 11
4.356548E-02
 21
3.846998
 12
1.313139E-02
 22
4.000000
 13
1.313139E-02
 23
4.000000
  0
LINE
  8
Layer0
 10
1.313139E-02
 20
4.000000
 11
1.313134E-02
 21
2.740381
  0
SOLID
  8
Layer0
 62
     0
 10
4.356531E-02
 20
0.153003
 11
-1.730286E-02
 21
0.153003
 12
1.313122E-02
 22
6.498570E-08
 13
1.313122E-02
 23
6.498570E-08
  0
LINE
  8
Layer0
 10
1.313122E-02
 20
6.498570E-08
 11
1.313133E-02
 21
2.490381
  0
LINE
  8
Layer0
  6
GAP
 10
1.399830
 20
4.000000
 11
-0.136869
 21
4.000000
  0
LINE
  8
Layer0
  6
GAP
 10
1.399830
 20
4.371140E-09
 11
-0.136869
 21
7.154241E-08
  0
TEXT
  8
Layer0
 10
-0.220156
 20
2.552881
 40
0.125000
  1
4.00
 72
     5
 11
0.246419
 21
2.552881
  0
ENDBLK
  8
Layer0
  0
BLOCK
  8
Layer0
  2
*D13
 70
     1
 10
0.000000
 20
0.000000
  0
SOLID
  8
Layer0
 62
     0
 10
0.527017
 20
4.153002
 11
0.466149
 21
4.153002
 12
0.496583
 22
4.000000
 13
0.496583
 23
4.000000
  0
LINE
  8
Layer0
 10
0.496583
 20
4.000000
 11
0.496583
 21
4.400000
  0
SOLID
  8
Layer0
 62
     0
 10
0.466149
 20
3.534997
 11
0.527017
 21
3.534997
 12
0.496583
 22
3.688000
 13
0.496583
 23
3.688000
  0
LINE
  8
Layer0
 10
0.496583
 20
3.688000
 11
0.496583
 21
3.288000
  0
LINE
  8
Layer0
  6
GAP
 10
1.399830
 20
4.000000
 11
0.346583
 21
4.000000
  0
LINE
  8
Layer0
  6
GAP
 10
1.861876
 20
3.688000
 11
0.346583
 21
3.688000
  0
TEXT
  8
Layer0
 10
0.325795
 20
3.812500
 40
0.125000
  1
.31
 72
     5
 11
0.667370
 21
3.812500
  0
ENDBLK
  8
Layer0
  0
BLOCK
  8
Layer0
  2
*D14
 70
     1
 10
0.000000
 20
0.000000
  0
SOLID
  8
Layer0
 62
     0
 10
0.466149
 20
3.534997
 11
0.527017
 21
3.534997
 12
0.496583
 22
3.688000
 13
0.496583
 23
3.688000
  0
LINE
  8
Layer0
 10
0.496583
 20
3.688000
 11
0.496583
 21
2.341342
  0
SOLID
  8
Layer0
 62
     0
 10
0.527017
 20
0.465003
 11
0.466148
 21
0.465003
 12
0.496582
 22
0.312000
 13
0.496582
 23
0.312000
  0
LINE
  8
Layer0
 10
0.496582
 20
0.312000
 11
0.496583
 21
2.091342
  0
LINE
  8
Layer0
  6
GAP
 10
1.861876
 20
3.688000
 11
0.346583
 21
3.688000
  0
LINE
  8
Layer0
  6
GAP
 10
1.858000
 20
0.312000
 11
0.346582
 21
0.312000
  0
TEXT
  8
Layer0
 10
0.263295
 20
2.153842
 40
0.125000
  1
3.38
 72
     5
 11
0.729870
 21
2.153842
  0
ENDBLK
  8
Layer0
  0
BLOCK
  8
Layer100
  2
*X0
 70
     1
 10
0.000000
 20
0.000000
  0
LINE
  8
Layer0
 10
-4.465036
 20
1.101342
 11
-4.456174
 21
1.110204
  0
LINE
  8
Layer0
 10
-4.445858
 20
1.141734
 11
-4.496564
 21
1.091026
  0
LINE
  8
Layer0
 10
-4.506448
 20
1.102355
 11
-4.517778
 21
1.091026
  0
LINE
  8
Layer0
 10
-4.445858
 20
1.162946
 11
-4.487188
 21
1.121617
  0
LINE
  8
Layer0
 10
-4.529142
 20
1.100875
 11
-4.538991
 21
1.091026
  0
LINE
  8
Layer0
 10
-4.445858
 20
1.184160
 11
-4.485708
 21
1.144310
  0
LINE
  8
Layer0
 10
-4.550355
 20
1.100875
 11
-4.560205
 21
1.091026
  0
LINE
  8
Layer0
 10
-4.460456
 20
1.190774
 11
-4.486736
 21
1.164495
  0
LINE
  8
Layer0
 10
-4.568008
 20
1.104434
 11
-4.581106
 21
1.091339
  0
LINE
  8
Layer0
 10
-4.481668
 20
1.190774
 11
-4.496688
 21
1.175756
  0
LINE
  8
Layer0
 10
-4.445835
 20
1.226610
 11
-4.456441
 21
1.216003
  0
LINE
  8
Layer0
 10
-4.578947
 20
1.114710
 11
-4.596979
 21
1.096679
  0
LINE
  8
Layer0
 10
-4.502882
 20
1.190774
 11
-4.515695
 21
1.177963
  0
LINE
  8
Layer0
 10
-4.446043
 20
1.247614
 11
-4.477655
 21
1.216003
  0
LINE
  8
Layer0
 10
-4.583850
 20
1.131019
 11
-4.609207
 21
1.105664
  0
LINE
  8
Layer0
 10
-4.524095
 20
1.190774
 11
-4.530670
 21
1.184201
  0
LINE
  8
Layer0
 10
-4.451227
 20
1.263644
 11
-4.485633
 21
1.229237
  0
LINE
  8
Layer0
 10
-4.583850
 20
1.152233
 11
-4.618082
 21
1.118000
  0
LINE
  8
Layer0
 10
-4.460109
 20
1.275975
 11
-4.485633
 21
1.250450
  0
LINE
  8
Layer0
 10
-4.583850
 20
1.173445
 11
-4.623136
 21
1.134160
  0
LINE
  8
Layer0
 10
-4.472221
 20
1.285075
 11
-4.490362
 21
1.266935
  0
LINE
  8
Layer0
 10
-4.583850
 20
1.194659
 11
-4.623600
 21
1.154909
  0
LINE
  8
Layer0
 10
-4.488332
 20
1.290177
 11
-4.501300
 21
1.277210
  0
LINE
  8
Layer0
 10
-4.583850
 20
1.215872
 11
-4.623600
 21
1.176123
  0
LINE
  8
Layer0
 10
-4.508995
 20
1.290728
 11
-4.518692
 21
1.281031
  0
LINE
  8
Layer0
 10
-4.583850
 20
1.237085
 11
-4.623600
 21
1.197337
  0
LINE
  8
Layer0
 10
-4.530208
 20
1.290728
 11
-4.539905
 21
1.281031
  0
LINE
  8
Layer0
 10
-4.582122
 20
1.260027
 11
-4.623600
 21
1.218549
  0
LINE
  8
Layer0
 10
-4.551422
 20
1.290728
 11
-4.562860
 21
1.279289
  0
LINE
  8
Layer0
 10
-4.572635
 20
1.290728
 11
-4.623600
 21
1.239763
  0
LINE
  8
Layer0
 10
-4.604272
 20
1.280303
 11
-4.613136
 21
1.271441
  0
ENDBLK
  8
Layer0
  0
BLOCK
  8
Layer100
  2
*X1
 70
     1
 10
0.000000
 20
0.000000
  0
LINE
  8
Layer0
 10
-4.273023
 20
1.091120
 11
-4.227951
 21
1.136193
  0
LINE
  8
Layer0
 10
-4.227609
 20
1.157749
 11
-4.294580
 21
1.090778
  0
LINE
  8
Layer0
 10
-4.305591
 20
1.100981
 11
-4.315794
 21
1.090778
  0
LINE
  8
Layer0
 10
-4.227609
 20
1.178962
 11
-4.267810
 21
1.138759
  0
LINE
  8
Layer0
 10
-4.326803
 20
1.100981
 11
-4.337007
 21
1.090778
  0
LINE
  8
Layer0
 10
-4.227609
 20
1.200175
 11
-4.267810
 21
1.159973
  0
LINE
  8
Layer0
 10
-4.346269
 20
1.102729
 11
-4.357912
 21
1.091087
  0
LINE
  8
Layer0
 10
-4.227609
 20
1.221388
 11
-4.267810
 21
1.181185
  0
LINE
  8
Layer0
 10
-4.358665
 20
1.111546
 11
-4.375394
 21
1.094818
  0
LINE
  8
Layer0
 10
-4.227746
 20
1.242463
 11
-4.267810
 21
1.202399
  0
LINE
  8
Layer0
 10
-4.365289
 20
1.126134
 11
-4.388381
 21
1.103042
  0
LINE
  8
Layer0
 10
-4.231533
 20
1.259890
 11
-4.267810
 21
1.223612
  0
LINE
  8
Layer0
 10
-4.365602
 20
1.147035
 11
-4.398153
 21
1.114484
  0
LINE
  8
Layer0
 10
-4.239507
 20
1.273129
 11
-4.267810
 21
1.244825
  0
LINE
  8
Layer0
 10
-4.365602
 20
1.168248
 11
-4.404340
 21
1.129511
  0
LINE
  8
Layer0
 10
-4.250837
 20
1.283014
 11
-4.270483
 21
1.263367
  0
LINE
  8
Layer0
 10
-4.365602
 20
1.189461
 11
-4.405706
 21
1.149359
  0
LINE
  8
Layer0
 10
-4.265731
 20
1.289332
 11
-4.279994
 21
1.275069
  0
LINE
  8
Layer0
 10
-4.365602
 20
1.210674
 11
-4.405706
 21
1.170572
  0
LINE
  8
Layer0
 10
-4.285442
 20
1.290834
 11
-4.295511
 21
1.280766
  0
LINE
  8
Layer0
 10
-4.365602
 20
1.231887
 11
-4.405706
 21
1.191785
  0
LINE
  8
Layer0
 10
-4.306657
 20
1.290834
 11
-4.316707
 21
1.280784
  0
LINE
  8
Layer0
 10
-4.365797
 20
1.252907
 11
-4.405706
 21
1.212999
  0
LINE
  8
Layer0
 10
-4.327869
 20
1.290834
 11
-4.337739
 21
1.280964
  0
LINE
  8
Layer0
 10
-4.349082
 20
1.290834
 11
-4.405706
 21
1.234211
  0
LINE
  8
Layer0
 10
-4.373939
 20
1.287191
 11
-4.402023
 21
1.259108
  0
ENDBLK
  8
Layer0
  0
BLOCK
  8
Layer100
  2
*X2
 70
     1
 10
0.000000
 20
0.000000
  0
LINE
  8
Layer0
 10
-4.048709
 20
1.091990
 11
-4.010820
 21
1.129878
  0
LINE
  8
Layer0
 10
-4.009714
 20
1.152197
 11
-4.071027
 21
1.090884
  0
LINE
  8
Layer0
 10
-4.082391
 20
1.100733
 11
-4.092241
 21
1.090884
  0
LINE
  8
Layer0
 10
-4.009714
 20
1.173411
 11
-4.049564
 21
1.133561
  0
LINE
  8
Layer0
 10
-4.103605
 20
1.100733
 11
-4.113454
 21
1.090884
  0
LINE
  8
Layer0
 10
-4.009714
 20
1.194624
 11
-4.049564
 21
1.154775
  0
LINE
  8
Layer0
 10
-4.124101
 20
1.101449
 11
-4.134668
 21
1.090884
  0
LINE
  8
Layer0
 10
-4.009714
 20
1.215837
 11
-4.049564
 21
1.175988
  0
LINE
  8
Layer0
 10
-4.137985
 20
1.108778
 11
-4.153299
 21
1.093465
  0
LINE
  8
Layer0
 10
-4.009714
 20
1.237050
 11
-4.049564
 21
1.197201
  0
LINE
  8
Layer0
 10
-4.146305
 20
1.121672
 11
-4.167375
 21
1.100603
  0
LINE
  8
Layer0
 10
-4.009714
 20
1.258264
 11
-4.049564
 21
1.218415
  0
LINE
  8
Layer0
 10
-4.147707
 20
1.141484
 11
-4.177986
 21
1.111205
  0
LINE
  8
Layer0
 10
-4.009714
 20
1.279477
 11
-4.049564
 21
1.239627
  0
LINE
  8
Layer0
 10
-4.147707
 20
1.162696
 11
-4.185119
 21
1.125285
  0
LINE
  8
Layer0
 10
-4.019567
 20
1.290838
 11
-4.049564
 21
1.260841
  0
LINE
  8
Layer0
 10
-4.147707
 20
1.183910
 11
-4.187810
 21
1.143808
  0
LINE
  8
Layer0
 10
-4.040781
 20
1.290838
 11
-4.049564
 21
1.282054
  0
LINE
  8
Layer0
 10
-4.147707
 20
1.205123
 11
-4.187810
 21
1.165020
  0
LINE
  8
Layer0
 10
-4.147707
 20
1.226336
 11
-4.187810
 21
1.186234
  0
LINE
  8
Layer0
 10
-4.147707
 20
1.247549
 11
-4.187810
 21
1.207447
  0
LINE
  8
Layer0
 10
-4.147707
 20
1.268763
 11
-4.187810
 21
1.228660
  0
LINE
  8
Layer0
 10
-4.147707
 20
1.289976
 11
-4.187810
 21
1.249874
  0
LINE
  8
Layer0
 10
-4.168117
 20
1.290780
 11
-4.187810
 21
1.271087
  0
ENDBLK
  8
Layer0
  0
BLOCK
  8
Layer100
  2
*X3
 70
     1
 10
0.000000
 20
0.000000
  0
LINE
  8
Layer0
 10
-3.809394
 20
1.090887
 11
-3.799446
 21
1.100837
  0
LINE
  8
Layer0
 10
-3.820657
 20
1.100837
 11
-3.830608
 21
1.090887
  0
LINE
  8
Layer0
 10
-3.851821
 20
1.090887
 11
-3.841871
 21
1.100837
  0
LINE
  8
Layer0
 10
-3.863084
 20
1.100837
 11
-3.873035
 21
1.090887
  0
LINE
  8
Layer0
 10
-3.894247
 20
1.090887
 11
-3.884298
 21
1.100837
  0
LINE
  8
Layer0
 10
-3.905511
 20
1.100837
 11
-3.915460
 21
1.090887
  0
LINE
  8
Layer0
 10
-3.936674
 20
1.090887
 11
-3.926725
 21
1.100837
  0
LINE
  8
Layer0
 10
-3.929611
 20
1.119165
 11
-3.957887
 21
1.090887
  0
LINE
  8
Layer0
 10
-3.969812
 20
1.100175
 11
-3.929611
 21
1.140377
  0
LINE
  8
Layer0
 10
-3.929611
 20
1.161591
 11
-3.969812
 21
1.121388
  0
LINE
  8
Layer0
 10
-3.969812
 20
1.142601
 11
-3.929611
 21
1.182804
  0
LINE
  8
Layer0
 10
-3.929611
 20
1.204017
 11
-3.969812
 21
1.163815
  0
LINE
  8
Layer0
 10
-3.969812
 20
1.185027
 11
-3.929611
 21
1.225231
  0
LINE
  8
Layer0
 10
-3.929611
 20
1.246444
 11
-3.969812
 21
1.206241
  0
LINE
  8
Layer0
 10
-3.969812
 20
1.227455
 11
-3.929611
 21
1.267657
  0
LINE
  8
Layer0
 10
-3.929611
 20
1.288870
 11
-3.969812
 21
1.248667
  0
LINE
  8
Layer0
 10
-3.969812
 20
1.269881
 11
-3.948808
 21
1.290885
  0
ENDBLK
  8
Layer0
  0
BLOCK
  8
Layer100
  2
*X4
 70
     1
 10
0.000000
 20
0.000000
  0
LINE
  8
Layer0
 10
-3.622785
 20
1.090821
 11
-3.573707
 21
1.139898
  0
LINE
  8
Layer0
 10
-3.631633
 20
1.103185
 11
-3.644077
 21
1.090742
  0
LINE
  8
Layer0
 10
-3.573572
 20
1.161248
 11
-3.616016
 21
1.118803
  0
LINE
  8
Layer0
 10
-3.655088
 20
1.100944
 11
-3.665290
 21
1.090742
  0
LINE
  8
Layer0
 10
-3.573572
 20
1.182461
 11
-3.613775
 21
1.142258
  0
LINE
  8
Layer0
 10
-3.676301
 20
1.100944
 11
-3.686504
 21
1.090742
  0
LINE
  8
Layer0
 10
-3.573572
 20
1.203674
 11
-3.613775
 21
1.163472
  0
LINE
  8
Layer0
 10
-3.697515
 20
1.100944
 11
-3.707717
 21
1.090742
  0
LINE
  8
Layer0
 10
-3.573572
 20
1.224887
 11
-3.613775
 21
1.184684
  0
LINE
  8
Layer0
 10
-3.711715
 20
1.107956
 11
-3.728931
 21
1.090742
  0
LINE
  8
Layer0
 10
-3.574008
 20
1.245662
 11
-3.613775
 21
1.205898
  0
LINE
  8
Layer0
 10
-3.711715
 20
1.129170
 11
-3.750144
 21
1.090742
  0
LINE
  8
Layer0
 10
-3.578592
 20
1.262292
 11
-3.613775
 21
1.227111
  0
LINE
  8
Layer0
 10
-3.711715
 20
1.150382
 11
-3.751565
 21
1.110533
  0
LINE
  8
Layer0
 10
-3.587127
 20
1.274972
 11
-3.613775
 21
1.248324
  0
LINE
  8
Layer0
 10
-3.711715
 20
1.171596
 11
-3.751565
 21
1.131747
  0
LINE
  8
Layer0
 10
-3.599020
 20
1.284292
 11
-3.617603
 21
1.265708
  0
LINE
  8
Layer0
 10
-3.711715
 20
1.192809
 11
-3.751565
 21
1.152960
  0
LINE
  8
Layer0
 10
-3.614437
 20
1.290089
 11
-3.628059
 21
1.276465
  0
LINE
  8
Layer0
 10
-3.711715
 20
1.214022
 11
-3.751565
 21
1.174173
  0
LINE
  8
Layer0
 10
-3.634941
 20
1.290797
 11
-3.644990
 21
1.280747
  0
LINE
  8
Layer0
 10
-3.711715
 20
1.235236
 11
-3.751565
 21
1.195386
  0
LINE
  8
Layer0
 10
-3.656154
 20
1.290797
 11
-3.666204
 21
1.280747
  0
LINE
  8
Layer0
 10
-3.711715
 20
1.256448
 11
-3.751565
 21
1.216600
  0
LINE
  8
Layer0
 10
-3.677368
 20
1.290797
 11
-3.687418
 21
1.280747
  0
LINE
  8
Layer0
 10
-3.711715
 20
1.277662
 11
-3.751565
 21
1.237812
  0
LINE
  8
Layer0
 10
-3.698581
 20
1.290797
 11
-3.708631
 21
1.280747
  0
LINE
  8
Layer0
 10
-3.719793
 20
1.290797
 11
-3.751565
 21
1.259026
  0
LINE
  8
Layer0
 10
-3.741006
 20
1.290797
 11
-3.751565
 21
1.280239
  0
ENDBLK
  8
Layer0
  0
BLOCK
  8
Layer100
  2
*X5
 70
     1
 10
0.000000
 20
0.000000
  0
LINE
  8
Layer0
 10
-4.799345
 20
1.091867
 11
-4.800053
 21
1.091160
  0
LINE
  8
Layer0
 10
-4.699345
 20
1.191867
 11
-4.700053
 21
1.191159
  0
LINE
  8
Layer0
 10
-4.799345
 20
1.113080
 11
-4.821267
 21
1.091160
  0
LINE
  8
Layer0
 10
-4.699345
 20
1.213081
 11
-4.721266
 21
1.191159
  0
LINE
  8
Layer0
 10
-4.799345
 20
1.134294
 11
-4.842480
 21
1.091160
  0
LINE
  8
Layer0
 10
-4.699345
 20
1.234293
 11
-4.742480
 21
1.191159
  0
LINE
  8
Layer0
 10
-4.799345
 20
1.155506
 11
-4.863692
 21
1.091160
  0
LINE
  8
Layer0
 10
-4.699345
 20
1.255507
 11
-4.763693
 21
1.191159
  0
LINE
  8
Layer0
 10
-4.799345
 20
1.176720
 11
-4.884905
 21
1.091160
  0
LINE
  8
Layer0
 10
-4.699345
 20
1.276719
 11
-4.784905
 21
1.191159
  0
LINE
  8
Layer0
 10
-4.705914
 20
1.291365
 11
-4.906119
 21
1.091160
  0
LINE
  8
Layer0
 10
-4.727128
 20
1.291365
 11
-4.775778
 21
1.242714
  0
LINE
  8
Layer0
 10
-4.748341
 20
1.291365
 11
-4.785923
 21
1.253783
  0
LINE
  8
Layer0
 10
-4.769555
 20
1.291365
 11
-4.796069
 21
1.264850
  0
LINE
  8
Layer0
 10
-4.790766
 20
1.291365
 11
-4.806214
 21
1.275918
  0
LINE
  8
Layer0
 10
-4.799401
 20
1.303944
 11
-4.816359
 21
1.286986
  0
LINE
  8
Layer0
 10
-4.799401
 20
1.325156
 11
-4.826504
 21
1.298053
  0
LINE
  8
Layer0
 10
-4.799401
 20
1.346370
 11
-4.836649
 21
1.309121
  0
LINE
  8
Layer0
 10
-4.799401
 20
1.367584
 11
-4.846797
 21
1.320189
  0
LINE
  8
Layer0
 10
-4.799401
 20
1.388796
 11
-4.856942
 21
1.331256
  0
LINE
  8
Layer0
 10
-4.817990
 20
1.391420
 11
-4.867087
 21
1.342324
  0
LINE
  8
Layer0
 10
-4.839203
 20
1.391420
 11
-4.877232
 21
1.353392
  0
LINE
  8
Layer0
 10
-4.860417
 20
1.391420
 11
-4.887377
 21
1.364460
  0
LINE
  8
Layer0
 10
-4.881630
 20
1.391420
 11
-4.897522
 21
1.375528
  0
LINE
  8
Layer0
 10
-4.902844
 20
1.391420
 11
-4.907668
 21
1.386595
  0
ENDBLK
  8
Layer0
  0
BLOCK
  8
Layer100
  2
*X6
 70
     1
 10
0.000000
 20
0.000000
  0
LINE
  8
Layer0
 10
-4.869452
 20
1.191466
 11
-4.849652
 21
1.211266
  0
LINE
  8
Layer0
 10
-4.849652
 20
1.232479
 11
-4.890666
 21
1.191466
  0
LINE
  8
Layer0
 10
-4.911877
 20
1.191466
 11
-4.849652
 21
1.253692
  0
LINE
  8
Layer0
 10
-4.849652
 20
1.274905
 11
-4.933091
 21
1.191466
  0
LINE
  8
Layer0
 10
-4.954304
 20
1.191466
 11
-4.854453
 21
1.291318
  0
LINE
  8
Layer0
 10
-4.875666
 20
1.291318
 11
-4.975518
 21
1.191466
  0
LINE
  8
Layer0
 10
-4.996731
 20
1.191466
 11
-4.896880
 21
1.291318
  0
LINE
  8
Layer0
 10
-4.918093
 20
1.291318
 11
-5.011866
 21
1.197544
  0
LINE
  8
Layer0
 10
-5.011866
 20
1.218758
 11
-4.939307
 21
1.291318
  0
LINE
  8
Layer0
 10
-4.960520
 20
1.291318
 11
-5.011866
 21
1.239970
  0
LINE
  8
Layer0
 10
-5.011866
 20
1.261184
 11
-4.981732
 21
1.291318
  0
LINE
  8
Layer0
 10
-5.002945
 20
1.291318
 11
-5.011866
 21
1.282398
  0
ENDBLK
  8
Layer0
  0
BLOCK
  8
Layer0
  2
BLOCK0
 70
     0
 10
0.000000
 20
0.000000
  0
POINT
  8
Layer0
 10
0.000000
 20
0.000000
  0
ENDBLK
  8
Layer0
  0
BLOCK
  8
Layer0
  2
REV-LINESP
 70
     0
 10
0.000000
 20
0.000000
  0
POINT
  8
Layer0
 10
0.000000
 20
0.000000
  0
LINE
  8
Layer0
 10
0.000000
 20
-0.200000
 11
0.000000
 21
0.000000
  0
LINE
  8
Layer0
 10
-0.375000
 20
-0.200000
 11
-0.375000
 21
0.000000
  0
LINE
  8
Layer0
 10
-0.750000
 20
-0.200000
 11
-0.750000
 21
0.000000
  0
LINE
  8
Layer0
 10
-3.000000
 20
-0.200000
 11
-3.000000
 21
0.000000
  0
LINE
  8
Layer0
 10
-3.375000
 20
-0.200000
 11
-3.375000
 21
0.000000
  0
LINE
  8
Layer0
 10
-4.000000
 20
-0.200000
 11
-4.000000
 21
0.000000
  0
LINE
  8
Layer0
 10
-4.375000
 20
-0.200000
 11
-4.375000
 21
0.000000
  0
LINE
  8
Layer0
 10
-4.375000
 20
-0.200000
 11
0.000000
 21
-0.200000
  0
ENDBLK
  8
Layer0
  0
BLOCK
  8
Layer0
  2
BP
 70
     0
 10
0.000000
 20
0.000000
  0
INSERT
  8
Layer0
  2
NEWTITLE
 10
7.657000
 20
-4.906250
  0
INSERT
  8
Layer0
  2
REV-HEADINGP
 10
7.657000
 20
4.906250
  0
POINT
  8
Layer0
 10
7.657000
 20
4.906250
  0
INSERT
  8
Layer0
 66
     1
  2
Cadra_attr_0
 10
0.000000
 20
0.000000
  0
ATTRIB
  8
Layer0
 10
8.032000
 20
-5.281250
 40
0.156000
  1
HP7585  08.032  -05.281  00
  2
2
 70
    11
  0
SEQEND
  8
Layer0
  0
INSERT
  8
Layer0
 66
     1
  2
Cadra_attr_1
 10
0.000000
 20
0.000000
  0
ATTRIB
  8
Layer0
 10
8.032000
 20
-4.936250
 40
0.156000
  1
HP7550  08.032  -04.936  00
  2
1
 70
    11
  0
SEQEND
  8
Layer0
  0
INSERT
  8
Layer0
 66
     1
  2
Cadra_attr_2
 10
0.000000
 20
0.000000
  0
ATTRIB
  8
Layer0
 10
-7.718000
 20
5.218750
 40
0.156000
  1
HP7596  -07.718  05.219  180
  2
3
 70
    11
  0
SEQEND
  8
Layer0
  0
LINE
  8
Layer0
 10
-7.657001
 20
4.906250
 11
7.657000
 21
4.906250
  0
LINE
  8
Layer0
 10
-7.657001
 20
4.906250
 11
-7.657001
 21
-4.906250
  0
LINE
  8
Layer0
 10
7.654999
 20
-4.906250
 11
-7.657001
 21
-4.906250
  0
LINE
  8
Layer0
 10
7.657000
 20
4.906250
 11
7.657000
 21
-4.906250
  0
ENDBLK
  8
Layer0
  0
BLOCK
  8
Layer0
  2
NEWTITLE
 70
     0
 10
0.000000
 20
0.000000
  0
INSERT
  8
Layer100
  2
*X0
 10
0.000000
 20
0.000000
  0
INSERT
  8
Layer100
  2
*X1
 10
0.000000
 20
0.000000
  0
INSERT
  8
Layer100
  2
*X2
 10
0.000000
 20
0.000000
  0
INSERT
  8
Layer100
  2
*X3
 10
0.000000
 20
0.000000
  0
INSERT
  8
Layer100
  2
*X4
 10
0.000000
 20
0.000000
  0
INSERT
  8
Layer100
  2
*X5
 10
0.000000
 20
0.000000
  0
INSERT
  8
Layer100
  2
*X6
 10
0.000000
 20
0.000000
  0
TEXT
  8
Layer0
 10
-2.370969
 20
1.281389
 40
4.687500E-02
  1
SPECIFIED: .XXXX%%p.0005;, .XXX%%p.005;, .XX%%p.01;,
 72
     5
 11
-0.227253
 21
1.281389
  0
TEXT
  8
Layer0
 10
-2.370969
 20
1.211076
 40
4.687500E-02
  1
.X%%p.02;  X/X%%p1/32
 72
     5
 11
-1.586628
 21
1.211076
  0
TEXT
  8
Layer0
 10
-4.979852
 20
0.252570
 40
4.687500E-02
  1
DESCRIPTION
 72
     5
 11
-4.476761
 21
0.252570
  0
TEXT
  8
Layer0
 10
-4.979852
 20
0.568051
 40
4.687500E-02
  1
CHECKED BY:
 72
     5
 11
-4.476761
 21
0.568051
  0
TEXT
  8
Layer0
 10
-4.979852
 20
0.901110
 40
4.687500E-02
  1
DRAWN BY:
 72
     5
 11
-4.570511
 21
0.901110
  0
TEXT
  8
Layer0
 10
-1.871299
 20
0.252570
 40
4.687500E-02
  1
IDENTIFICATION NO. & REVISION
 72
     5
 11
-0.524459
 21
0.252570
  0
TEXT
  8
Layer0
 10
-2.364801
 20
1.361413
 40
4.687500E-02
  1
TOLERANCE TO BE APPLIED UNLESS OTHERWISE
 72
     5
 11
-0.502335
 21
1.361413
  0
TEXT
  8
Layer0
 10
-2.364801
 20
1.135219
 40
4.687500E-02
  1
UNSPECIFIED ANGLES%%p1%%d, SPECIFIED ANGLES%%pO%%d30'
 72
     5
 11
-0.267960
 21
1.135219
  0
TEXT
  8
Layer0
 10
-2.364801
 20
1.052206
 40
4.687500E-02
  1
DIMENSIONS APPLY AFTER PLATING
 72
     5
 11
-0.971085
 21
1.052206
  0
TEXT
  8
Layer0
 10
-2.364801
 20
0.943561
 40
4.687500E-02
  1
ALL SURFACES TO BE 125  UNLESS OTHERWISE SPECIFIED
 72
     5
 11
-3.358502E-02
 21
0.943561
  0
TEXT
  8
Layer0
 10
-2.364801
 20
0.811332
 40
4.687500E-02
  1
BREAK ALL SHARP EDGES
 72
     5
 11
-1.392960
 21
0.811332
  0
TEXT
  8
Layer0
 10
-2.444901
 20
0.381535
 40
6.300000E-02
  1
REFDOC:
 72
     5
 11
-2.020748
 21
0.381535
  0
TEXT
  8
Layer0
 10
-2.364801
 20
0.736318
 40
4.687500E-02
  1
THIS DRAWING AND ALL INFORMATION THERE ON IS THE
 72
     5
 11
-0.127335
 21
0.736318
  0
TEXT
  8
Layer0
 10
-2.364801
 20
0.666005
 40
4.687500E-02
  1
PROPERTY OF GOULD INC. AND IS SUBJECT TO RETURN ON
 72
     5
 11
-3.358502E-02
 21
0.666005
  0
TEXT
  8
Layer0
 10
-2.364801
 20
0.595693
 40
4.687500E-02
  1
DEMAND.  THIS INFORMATION IS CONFIDENTIAL AND MUST
 72
     5
 11
-3.358502E-02
 21
0.595693
  0
TEXT
  8
Layer0
 10
-2.364801
 20
0.525380
 40
4.687500E-02
  1
NOT BE MADE PUBLIC OR COPIED UNLESS AUTHORIZED.
 72
     5
 11
-0.174210
 21
0.525380
  0
TEXT
  8
Layer0
 10
-3.135691
 20
0.907278
 40
4.687500E-02
  1
INIT. REL.
 72
     5
 11
-2.679475
 21
0.907278
  0
TEXT
  8
Layer0
 10
-3.006168
 20
0.418541
 40
6.300000E-02
  1
NONE
 72
     5
 11
-2.771014
 21
0.418541
  0
TEXT
  8
Layer0
 10
-3.111019
 20
0.574219
 40
4.687500E-02
  1
SCALE:
 72
     5
 11
-2.842304
 21
0.574219
  0
TEXT
  8
Layer0
 10
-3.653783
 20
0.574219
 40
4.687500E-02
  1
DATE:
 72
     5
 11
-3.431942
 21
0.574219
  0
TEXT
  8
Layer0
 10
-3.519015
 20
1.160825
 40
4.687500E-02
  1
P.O. BOX 729
 72
     5
 11
-2.969049
 21
1.160825
  0
TEXT
  8
Layer0
 10
-3.515032
 20
1.089139
 40
4.687500E-02
  1
MARBLE FALLS, TX 78654
 72
     5
 11
-2.496317
 21
1.089139
  0
TEXT
  8
Layer0
 10
-3.659951
 20
0.901110
 40
4.687500E-02
  1
DATE:
 72
     5
 11
-3.438110
 21
0.901110
  0
TEXT
  8
Layer0
 10
-3.522998
 20
1.232512
 40
4.687500E-02
  1
GOULD INC.
 72
     5
 11
-3.066782
 21
1.232512
  0
TEXT
  8
Layer0
 10
-5.004523
 20
0.999400
 40
6.000000E-02
  1
CIRCUIT PROTECTION DIV.
 72
     5
 11
-3.640567
 21
0.999400
  0
POINT
  8
Layer0
 10
-1.988487
 20
0.413035
  0
LINE
  8
Layer0
 10
-5.041019
 20
0.650082
 11
-2.475740
 21
0.650082
  0
LINE
  8
Layer0
 10
-2.475740
 20
0.493216
 11
-4.263256E-14
 21
0.493216
  0
LINE
  8
Layer0
 10
-5.041019
 20
1.436883
 11
-5.684342E-14
 21
1.436883
  0
LINE
  8
Layer0
 10
-1.902138
 20
0.000000
 11
-1.902138
 21
0.326275
  0
LINE
  8
Layer0
 10
-5.041019
 20
0.326275
 11
-5.684342E-14
 21
0.326275
  0
LINE
  8
Layer0
 10
-3.141859
 20
0.326275
 11
-3.141859
 21
0.973890
  0
LINE
  8
Layer0
 10
-2.475740
 20
0.326275
 11
-2.475740
 21
1.436883
  0
LINE
  8
Layer0
 10
-5.041019
 20
0.973890
 11
-2.475740
 21
0.973890
  0
LINE
  8
Layer0
 10
-5.041019
 20
0.000000
 11
-5.041019
 21
1.436883
  0
LINE
  8
Layer0
 10
-5.012015
 20
1.291330
 11
-4.849514
 21
1.291330
  0
LINE
  8
Layer0
 10
-4.849514
 20
1.291330
 11
-4.849514
 21
1.191329
  0
LINE
  8
Layer0
 10
-4.849514
 20
1.191329
 11
-5.012015
 21
1.191329
  0
LINE
  8
Layer0
 10
-5.012015
 20
1.191329
 11
-5.012015
 21
1.291330
  0
LINE
  8
Layer0
 10
-4.912014
 20
1.391329
 11
-4.774516
 21
1.241329
  0
LINE
  8
Layer0
 10
-4.774516
 20
1.241329
 11
-4.912014
 21
1.091330
  0
LINE
  8
Layer0
 10
-4.912014
 20
1.091330
 11
-4.799515
 21
1.091330
  0
LINE
  8
Layer0
 10
-4.799515
 20
1.091330
 11
-4.799515
 21
1.191329
  0
LINE
  8
Layer0
 10
-4.799515
 20
1.191329
 11
-4.699515
 21
1.191329
  0
LINE
  8
Layer0
 10
-4.699515
 20
1.191329
 11
-4.699515
 21
1.291330
  0
LINE
  8
Layer0
 10
-4.699515
 20
1.291330
 11
-4.799515
 21
1.291330
  0
LINE
  8
Layer0
 10
-4.799515
 20
1.291330
 11
-4.799515
 21
1.391329
  0
LINE
  8
Layer0
 10
-4.799515
 20
1.391329
 11
-4.912014
 21
1.391329
  0
LINE
  8
Layer0
 10
-3.791704
 20
1.100873
 11
-3.791704
 21
1.090874
  0
LINE
  8
Layer0
 10
-3.969703
 20
1.290874
 11
-3.929704
 21
1.290874
  0
LINE
  8
Layer0
 10
-4.049703
 20
1.290874
 11
-4.009704
 21
1.290874
  0
LINE
  8
Layer0
 10
-4.187704
 20
1.290874
 11
-4.147705
 21
1.290874
  0
LINE
  8
Layer0
 10
-3.573703
 20
1.140873
 11
-3.573703
 21
1.240874
  0
LINE
  8
Layer0
 10
-3.751705
 20
1.090874
 11
-3.751705
 21
1.290874
  0
LINE
  8
Layer0
 10
-3.613704
 20
1.130874
 11
-3.613704
 21
1.250874
  0
LINE
  8
Layer0
 10
-3.711704
 20
1.100873
 11
-3.711704
 21
1.280874
  0
LINE
  8
Layer0
 10
-3.751705
 20
1.090874
 11
-3.623704
 21
1.090874
  0
LINE
  8
Layer0
 10
-3.751705
 20
1.290874
 11
-3.623704
 21
1.290874
  0
LINE
  8
Layer0
 10
-3.711704
 20
1.100873
 11
-3.643703
 21
1.100873
  0
LINE
  8
Layer0
 10
-3.711704
 20
1.280874
 11
-3.643703
 21
1.280874
  0
ARC
  8
Layer0
 10
-3.623704
 20
1.140873
 40
5.000000E-02
 50
270.000001
 51
360.000010
  0
ARC
  8
Layer0
 10
-3.623704
 20
1.240874
 40
5.000000E-02
 50
0.000000
 51
90.000003
  0
ARC
  8
Layer0
 10
-3.643703
 20
1.130874
 40
3.000000E-02
 50
270.000001
 51
360.000010
  0
ARC
  8
Layer0
 10
-3.643703
 20
1.250874
 40
3.000000E-02
 50
1.001791E-05
 51
89.999989
  0
LINE
  8
Layer0
 10
-3.969703
 20
1.090874
 11
-3.969703
 21
1.290874
  0
LINE
  8
Layer0
 10
-3.929704
 20
1.100873
 11
-3.929704
 21
1.290874
  0
LINE
  8
Layer0
 10
-3.969703
 20
1.090874
 11
-3.791704
 21
1.090874
  0
LINE
  8
Layer0
 10
-3.929704
 20
1.100873
 11
-3.791704
 21
1.100873
  0
LINE
  8
Layer0
 10
-4.227705
 20
1.140873
 11
-4.227705
 21
1.240874
  0
LINE
  8
Layer0
 10
-4.405706
 20
1.140873
 11
-4.405706
 21
1.240874
  0
LINE
  8
Layer0
 10
-4.267704
 20
1.130874
 11
-4.267704
 21
1.250874
  0
LINE
  8
Layer0
 10
-4.365705
 20
1.130874
 11
-4.365705
 21
1.250874
  0
LINE
  8
Layer0
 10
-4.355705
 20
1.090874
 11
-4.277704
 21
1.090874
  0
LINE
  8
Layer0
 10
-4.355705
 20
1.290874
 11
-4.277704
 21
1.290874
  0
LINE
  8
Layer0
 10
-4.335706
 20
1.100873
 11
-4.297704
 21
1.100873
  0
LINE
  8
Layer0
 10
-4.335706
 20
1.280874
 11
-4.297704
 21
1.280874
  0
ARC
  8
Layer0
 10
-4.355705
 20
1.140873
 40
5.000000E-02
 50
180.000005
 51
270.000001
  0
ARC
  8
Layer0
 10
-4.277704
 20
1.140873
 40
5.000000E-02
 50
270.000001
 51
360.000010
  0
ARC
  8
Layer0
 10
-4.277704
 20
1.240874
 40
5.000000E-02
 50
0.000000
 51
90.000003
  0
ARC
  8
Layer0
 10
-4.355705
 20
1.240874
 40
5.000000E-02
 50
90.000003
 51
180.000005
  0
ARC
  8
Layer0
 10
-4.335706
 20
1.130874
 40
3.000000E-02
 50
180.000005
 51
270.000001
  0
ARC
  8
Layer0
 10
-4.297704
 20
1.130874
 40
3.000000E-02
 50
270.000001
 51
360.000010
  0
ARC
  8
Layer0
 10
-4.297704
 20
1.250874
 40
3.000000E-02
 50
1.001791E-05
 51
89.999989
  0
ARC
  8
Layer0
 10
-4.335706
 20
1.250874
 40
3.000000E-02
 50
90.000003
 51
180.000005
  0
ARC
  8
Layer0
 10
-4.505706
 20
1.157874
 40
2.000000E-02
 50
0.000000
 51
90.000003
  0
LINE
  8
Layer0
 10
-4.445705
 20
1.140873
 11
-4.445705
 21
1.190874
  0
LINE
  8
Layer0
 10
-4.485706
 20
1.130874
 11
-4.485706
 21
1.157874
  0
LINE
  8
Layer0
 10
-4.485706
 20
1.215874
 11
-4.445705
 21
1.215874
  0
LINE
  8
Layer0
 10
-4.445705
 20
1.215874
 11
-4.445705
 21
1.240874
  0
LINE
  8
Layer0
 10
-4.623706
 20
1.140873
 11
-4.623706
 21
1.240874
  0
LINE
  8
Layer0
 10
-4.485706
 20
1.215874
 11
-4.485706
 21
1.250874
  0
LINE
  8
Layer0
 10
-4.583705
 20
1.130874
 11
-4.583705
 21
1.250874
  0
LINE
  8
Layer0
 10
-4.573705
 20
1.090874
 11
-4.495706
 21
1.090874
  0
LINE
  8
Layer0
 10
-4.573705
 20
1.290874
 11
-4.495706
 21
1.290874
  0
LINE
  8
Layer0
 10
-4.553707
 20
1.100873
 11
-4.515705
 21
1.100873
  0
LINE
  8
Layer0
 10
-4.553707
 20
1.280874
 11
-4.515705
 21
1.280874
  0
ARC
  8
Layer0
 10
-4.573705
 20
1.140873
 40
5.000000E-02
 50
180.000005
 51
270.000001
  0
ARC
  8
Layer0
 10
-4.495706
 20
1.140873
 40
5.000000E-02
 50
270.000001
 51
360.000010
  0
ARC
  8
Layer0
 10
-4.495706
 20
1.240874
 40
5.000000E-02
 50
0.000000
 51
90.000003
  0
ARC
  8
Layer0
 10
-4.573705
 20
1.240874
 40
5.000000E-02
 50
90.000003
 51
180.000005
  0
ARC
  8
Layer0
 10
-4.553707
 20
1.130874
 40
3.000000E-02
 50
180.000005
 51
270.000001
  0
ARC
  8
Layer0
 10
-4.515705
 20
1.130874
 40
3.000000E-02
 50
270.000001
 51
360.000010
  0
ARC
  8
Layer0
 10
-4.515705
 20
1.250874
 40
3.000000E-02
 50
1.001791E-05
 51
89.999989
  0
ARC
  8
Layer0
 10
-4.553707
 20
1.250874
 40
3.000000E-02
 50
90.000003
 51
180.000005
  0
ARC
  8
Layer0
 10
-4.079704
 20
1.130874
 40
3.000000E-02
 50
270.000001
 51
360.000010
  0
ARC
  8
Layer0
 10
-4.117704
 20
1.130874
 40
3.000000E-02
 50
180.000005
 51
270.000001
  0
ARC
  8
Layer0
 10
-4.059703
 20
1.140873
 40
5.000000E-02
 50
270.000001
 51
360.000010
  0
ARC
  8
Layer0
 10
-4.137704
 20
1.140873
 40
5.000000E-02
 50
180.000005
 51
270.000001
  0
LINE
  8
Layer0
 10
-4.117704
 20
1.100873
 11
-4.079704
 21
1.100873
  0
LINE
  8
Layer0
 10
-4.137704
 20
1.090874
 11
-4.059703
 21
1.090874
  0
LINE
  8
Layer0
 10
-4.147705
 20
1.130874
 11
-4.147705
 21
1.290874
  0
LINE
  8
Layer0
 10
-4.049703
 20
1.130874
 11
-4.049703
 21
1.290874
  0
LINE
  8
Layer0
 10
-4.187704
 20
1.140873
 11
-4.187704
 21
1.290874
  0
LINE
  8
Layer0
 10
-4.009704
 20
1.140873
 11
-4.009704
 21
1.290874
  0
LINE
  8
Layer0
 10
-4.530706
 20
1.177874
 11
-4.530706
 21
1.190874
  0
LINE
  8
Layer0
 10
-4.530706
 20
1.177874
 11
-4.505706
 21
1.177874
  0
LINE
  8
Layer0
 10
-4.530706
 20
1.190874
 11
-4.445705
 21
1.190874
  0
LINE
  8
Layer0
 10
-1.368988
 20
0.887476
 11
-1.396059
 21
0.934364
  0
LINE
  8
Layer0
 10
-1.368988
 20
0.887476
 11
-1.291639
 21
1.021448
  0
ENDBLK
  8
Layer0
  0
BLOCK
  8
Layer0
  2
REV-HEADINGP
 70
     0
 10
0.000000
 20
0.000000
  0
TEXT
  8
Layer0
 10
-0.271321
 20
-0.141521
 40
6.250000E-02
  1
CK
 72
     5
 11
-0.163033
 21
-0.141521
  0
TEXT
  8
Layer0
 10
-0.641315
 20
-0.141704
 40
6.250000E-02
  1
BY
 72
     5
 11
-0.533027
 21
-0.141704
  0
TEXT
  8
Layer0
 10
-2.220139
 20
-0.141521
 40
6.250000E-02
  1
DESCRIPTION
 72
     5
 11
-1.549351
 21
-0.141521
  0
TEXT
  8
Layer0
 10
-3.281666
 20
-0.141521
 40
6.250000E-02
  1
ECO
 72
     5
 11
-3.110879
 21
-0.141521
  0
TEXT
  8
Layer0
 10
-3.814410
 20
-0.141521
 40
6.250000E-02
  1
DATE
 72
     5
 11
-3.581123
 21
-0.141521
  0
TEXT
  8
Layer0
 10
-4.289352
 20
-0.141521
 40
6.250000E-02
  1
REV
 72
     5
 11
-4.118564
 21
-0.141521
  0
LINE
  8
Layer0
 10
0.000000
 20
-0.200000
 11
0.000000
 21
0.000000
  0
LINE
  8
Layer0
 10
-0.375000
 20
-0.200000
 11
-0.375000
 21
0.000000
  0
LINE
  8
Layer0
 10
-0.750000
 20
-0.200000
 11
-0.750000
 21
0.000000
  0
LINE
  8
Layer0
 10
-3.000000
 20
-0.200000
 11
-3.000000
 21
0.000000
  0
LINE
  8
Layer0
 10
-3.375000
 20
-0.200000
 11
-3.375000
 21
0.000000
  0
LINE
  8
Layer0
 10
-4.000000
 20
-0.200000
 11
-4.000000
 21
0.000000
  0
LINE
  8
Layer0
 10
-4.375000
 20
-0.200000
 11
-4.375000
 21
0.000000
  0
LINE
  8
Layer0
 10
-4.375000
 20
-0.200000
 11
0.000000
 21
-0.200000
  0
ENDBLK
  8
Layer0
  0
BLOCK
  8
Layer0
  2
TOPCAP_09
 70
     0
 10
0.000000
 20
0.000000
  0
LINE
  8
Layer0
 10
3.657319E-02
 20
-2.111555E-02
 11
8.617753E-09
 21
-4.223109E-02
  0
LINE
  8
Layer0
 10
-8.617753E-09
 20
-4.223109E-02
 11
-3.657319E-02
 21
-2.111555E-02
  0
LINE
  8
Layer0
 10
-3.657320E-02
 20
-2.111554E-02
 11
-3.657320E-02
 21
2.111554E-02
  0
LINE
  8
Layer0
 10
-3.657319E-02
 20
2.111555E-02
 11
-8.617754E-09
 21
4.223109E-02
  0
LINE
  8
Layer0
 10
8.617754E-09
 20
4.223109E-02
 11
3.657319E-02
 21
2.111555E-02
  0
LINE
  8
Layer0
 10
3.657320E-02
 20
2.111554E-02
 11
3.657320E-02
 21
-2.111554E-02
  0
CIRCLE
  8
Layer0
 10
0.000000
 20
0.000000
 40
6.363737E-02
  0
CIRCLE
  8
Layer0
 10
0.000000
 20
0.000000
 40
7.314640E-02
  0
ENDBLK
  8
Layer0
  0
BLOCK
  8
Layer0
  2
Cadra_attr_0
 70
     2
 10
0.000000
 20
0.000000
  0
POINT
  8
Layer0
 10
8.032000
 20
-5.281250
  0
ATTDEF
  8
Layer0
 10
8.032000
 20
-5.281250
 40
0.156000
  1
HP7585  08.032  -05.281  00
  3

  2
2
 70
    11
  0
ENDBLK
  8
Layer0
  0
BLOCK
  8
Layer0
  2
Cadra_attr_1
 70
     2
 10
0.000000
 20
0.000000
  0
POINT
  8
Layer0
 10
8.032000
 20
-4.936250
  0
ATTDEF
  8
Layer0
 10
8.032000
 20
-4.936250
 40
0.156000
  1
HP7550  08.032  -04.936  00
  3

  2
1
 70
    11
  0
ENDBLK
  8
Layer0
  0
BLOCK
  8
Layer0
  2
Cadra_attr_2
 70
     2
 10
0.000000
 20
0.000000
  0
POINT
  8
Layer0
 10
-7.718000
 20
5.218750
  0
ATTDEF
  8
Layer0
 10
-7.718000
 20
5.218750
 40
0.156000
  1
HP7596  -07.718  05.219  180
  3

  2
3
 70
    11
  0
ENDBLK
  8
Layer0
  0
ENDSEC
  0
SECTION
  2
ENTITIES
  0
TEXT
  8
Layer0
 10
12.383311
 20
-5.083276
 40
0.125000
  1
05B0428     01
 72
     5
 11
14.100312
 21
-5.083276
  0
TEXT
  8
Layer0
 10
10.803645
 20
4.120472
 40
0.125000
  1
1215
 41
0.832474
 72
     5
 11
11.115823
 21
4.120472
  0
TEXT
  8
Layer0
 10
9.830983
 20
4.120761
 40
0.125000
  1
01 9/93    REV UL CERT.
 72
     5
 11
12.672983
 21
4.120761
  0
TEXT
  8
Layer0
 10
-0.344416
 20
-3.921225
 40
0.100000
  1
3. 66112 USES 3/8-24 SLOTTED SET SCREW
 72
     5
 11
3.428845
 21
-3.921225
  0
TEXT
  8
Layer0
 10
-0.344416
 20
-4.071225
 40
0.100000
  1
   67112 USES 7/16-20 HEX SET SCREW
 72
     5
 11
3.128845
 21
-4.071225
  0
TEXT
  8
Layer0
 10
-0.351258
 20
-4.256500
 40
0.100000
  1
2. (1) 2/0 X (12) #10, 2 POLE, 600V.
 72
     5
 11
3.222002
 21
-4.256500
  0
TEXT
  8
Layer0
 10
-0.358100
 20
-4.468613
 40
0.100000
  1
1. MATERIAL COMPOSITION AND RATING:
 72
     5
 11
3.115160
 21
-4.468613
  0
TEXT
  8
Layer0
 10
-0.358100
 20
-4.618613
 40
0.100000
  1
   BASE: THERMOPLASTIC 125%%dC RTI
 72
     5
 11
2.815160
 21
-4.618613
  0
TEXT
  8
Layer0
 10
-0.358100
 20
-4.768613
 40
0.100000
  1
   CONNECTOR: ALUMINUM OR COPPER ALLOY-TIN PLATED
 72
     5
 11
4.515160
 21
-4.768613
  0
TEXT
  8
Layer0
 10
10.399052
 20
0.217393
 40
0.100000
  1
#10-#14 15
 72
     5
 11
11.372312
 21
0.217393
  0
TEXT
  8
Layer0
 10
10.436528
 20
0.940170
 40
0.100000
  1
#10-#14 15
 72
     5
 11
11.409789
 21
0.940170
  0
POINT
  8
Layer0
 10
8.170276
 20
1.496297
  0
POINT
  8
Layer0
 10
10.270278
 20
1.496297
  0
TEXT
  8
Layer0
 10
9.515100
 20
0.205013
 40
0.100000
  1
#10-#14
 72
     5
 11
10.188361
 21
0.205013
  0
TEXT
  8
Layer0
 10
9.552577
 20
0.927789
 40
0.100000
  1
#10-#14
 72
     5
 11
10.225837
 21
0.927789
  0
TEXT
  8
Layer0
 10
7.435317
 20
0.203452
 40
0.100000
  1
2/0-#14
 72
     5
 11
8.108577
 21
0.203452
  0
TEXT
  8
Layer0
 10
7.453128
 20
0.942224
 40
0.100000
  1
2/0-#14
 72
     5
 11
8.126388
 21
0.942224
  0
TEXT
  8
Layer0
 10
11.455527
 20
-3.406946
 40
0.125000
  1
P/N  66112 (CU ONLY)
 72
     5
 11
13.922528
 21
-3.406946
  0
TEXT
  8
Layer0
 10
11.455527
 20
-3.593946
 40
0.125000
  1
     67112 (CU-AL)
 72
     5
 11
13.672528
 21
-3.593946
  0
TEXT
  8
Layer0
 10
6.710275
 20
0.208796
 40
0.100000
  1
67112
 72
     5
 11
7.183535
 21
0.208796
  0
DIMENSION
  8
Layer0
  2
*D0
 10
6.097028
 20
-1.540168
 11
6.097028
 21
-2.266466
 13
7.591204
 23
-3.335168
 14
8.147205
 24
-1.540168
 50
90.000000
  0
DIMENSION
  8
Layer0
  2
*D1
 10
6.488074
 20
-1.800168
 11
6.488074
 21
-2.558573
 13
7.591204
 23
-3.335168
 14
8.147205
 24
-1.800168
 50
90.000000
  0
TEXT
  8
Layer0
 10
6.710275
 20
0.958796
 40
0.100000
  1
66112
 72
     5
 11
7.183535
 21
0.958796
  0
TEXT
  8
Layer0
 10
8.244219
 20
8.064437E-02
 40
0.100000
  1
#8 - #14 50
 72
     5
 11
9.317479
 21
8.064437E-02
  0
TEXT
  8
Layer0
 10
8.254582
 20
0.329380
 40
0.100000
  1
2/0-#6  120
 72
     5
 11
9.327843
 21
0.329380
  0
TEXT
  8
Layer0
 10
8.267084
 20
1.040138
 40
0.100000
  1
#4- #6   45
 72
     5
 11
9.340344
 21
1.040138
  0
TEXT
  8
Layer0
 10
8.270273
 20
1.296296
 40
0.100000
  1
2/0-#3   50
 72
     5
 11
9.343534
 21
1.296296
  0
LINE
  8
Layer0
 10
8.170276
 20
0.746297
 11
9.470278
 21
0.746297
  0
TEXT
  8
Layer0
 10
13.049226
 20
0.205013
 40
0.100000
  1
LR15469
 72
     5
 11
13.722486
 21
0.205013
  0
LINE
  8
Layer0
 10
8.182034
 20
0.246468
 11
9.470278
 21
0.246468
  0
TEXT
  8
Layer0
 10
12.365201
 20
0.205013
 40
0.100000
  1
XCFR2
 72
     5
 11
12.838461
 21
0.205013
  0
TEXT
  8
Layer0
 10
11.577538
 20
0.205013
 40
0.100000
  1
E73571
 72
     5
 11
12.150798
 21
0.205013
  0
LINE
  8
Layer0
 10
6.545275
 20
-3.703833E-03
 11
13.807669
 21
-3.703833E-03
  0
TEXT
  8
Layer0
 10
8.235150
 20
0.560344
 40
0.100000
  1
#10- #14 35
 72
     5
 11
9.308411
 21
0.560344
  0
TEXT
  8
Layer0
 10
8.235150
 20
0.808400
 40
0.100000
  1
#8       40
 72
     5
 11
9.308411
 21
0.808400
  0
LINE
  8
Layer0
 10
6.545275
 20
0.496297
 11
13.807669
 21
0.496297
  0
LINE
  8
Layer0
 10
8.170276
 20
0.996297
 11
9.470278
 21
0.996297
  0
LINE
  8
Layer0
 10
8.170276
 20
1.246297
 11
9.470278
 21
1.246297
  0
TEXT
  8
Layer0
 10
13.026170
 20
1.534908
 40
0.100000
  1
REPORT #
 72
     5
 11
13.799430
 21
1.534908
  0
TEXT
  8
Layer0
 10
12.293239
 20
1.534908
 40
0.100000
  1
GUIDE #
 72
     5
 11
12.966499
 21
1.534908
  0
TEXT
  8
Layer0
 10
11.555891
 20
1.534908
 40
0.100000
  1
FILE #
 72
     5
 11
12.129151
 21
1.534908
  0
TEXT
  8
Layer0
 10
13.065670
 20
0.933430
 40
0.100000
  1
LR69363
 72
     5
 11
13.738930
 21
0.933430
  0
TEXT
  8
Layer0
 10
13.193950
 20
1.782162
 40
0.156000
  1
CSA
 72
     5
 11
13.620236
 21
1.782162
  0
TEXT
  8
Layer0
 10
12.121044
 20
1.804239
 40
0.156000
  1
UL
 72
     5
 11
12.391330
 21
1.804239
  0
LINE
  8
Layer0
 10
13.807669
 20
2.046297
 11
13.807669
 21
-3.703833E-03
  0
TEXT
  8
Layer0
 10
10.520279
 20
1.523966
 40
0.100000
  1
TORQUE
 72
     5
 11
11.093539
 21
1.523966
  0
TEXT
  8
Layer0
 10
9.595277
 20
1.523966
 40
0.100000
  1
RANGE
 72
     5
 11
10.068537
 21
1.523966
  0
TEXT
  8
Layer0
 10
9.945278
 20
1.698966
 40
0.100000
  1
SECONDARY
 72
     5
 11
10.818538
 21
1.698966
  0
TEXT
  8
Layer0
 10
6.745276
 20
1.723965
 40
0.100000
  1
P/N
 72
     5
 11
7.018537
 21
1.723965
  0
TEXT
  8
Layer0
 10
8.395275
 20
1.523966
 40
0.100000
  1
TORQUE
 72
     5
 11
8.968535
 21
1.523966
  0
TEXT
  8
Layer0
 10
7.495276
 20
1.523966
 40
0.100000
  1
RANGE
 72
     5
 11
7.968537
 21
1.523966
  0
TEXT
  8
Layer0
 10
7.870275
 20
1.698966
 40
0.100000
  1
PRIMARY
 72
     5
 11
8.543536
 21
1.698966
  0
TEXT
  8
Layer0
 10
7.870275
 20
1.898966
 40
0.100000
  1
WIRE RANGE & TORQUE (IN-LBS)
 72
     5
 11
10.643536
 21
1.898966
  0
LINE
  8
Layer0
 10
12.995277
 20
2.046297
 11
12.995277
 21
-3.703833E-03
  0
LINE
  8
Layer0
 10
12.245277
 20
1.671297
 11
12.245277
 21
-3.703833E-03
  0
LINE
  8
Layer0
 10
11.495277
 20
2.046297
 11
11.495277
 21
-3.703833E-03
  0
LINE
  8
Layer0
 10
10.270278
 20
1.671297
 11
10.270278
 21
-3.703833E-03
  0
LINE
  8
Layer0
 10
9.470278
 20
1.846297
 11
9.470278
 21
-3.703833E-03
  0
LINE
  8
Layer0
 10
8.170276
 20
1.671297
 11
8.170276
 21
-3.703833E-03
  0
LINE
  8
Layer0
 10
7.345275
 20
2.046297
 11
7.345275
 21
-3.703833E-03
  0
LINE
  8
Layer0
 10
6.545275
 20
2.046297
 11
6.545275
 21
-3.703833E-03
  0
LINE
  8
Layer0
 10
7.345275
 20
1.671297
 11
13.807669
 21
1.671297
  0
LINE
  8
Layer0
 10
6.545275
 20
1.496297
 11
13.807669
 21
1.496297
  0
LINE
  8
Layer0
 10
7.345275
 20
1.846297
 11
11.495277
 21
1.846297
  0
LINE
  8
Layer0
 10
6.545275
 20
2.046297
 11
13.807669
 21
2.046297
  0
INSERT
  8
Layer0
  2
BLOCK0
 10
9.462049
 20
1.833574
 41
0.500000
 42
0.500000
 43
0.500000
  0
TEXT
  8
Layer0
 10
-0.617477
 20
-4.988393
 40
0.125000
  1
NOTES: UNLESS OTHERWISE SPECIFIED
 72
     5
 11
3.474523
 21
-4.988393
  0
TEXT
  8
Layer0
 10
9.244311
 20
-5.083276
 40
0.125000
  1
PDB,(1)2/0 X (12)#10
 72
     5
 11
11.711312
 21
-5.083276
  0
TEXT
  8
Layer0
 10
9.498012
 20
-4.741157
 40
0.125000
  1
GHO    3/93
 72
     5
 11
10.840012
 21
-4.741157
  0
TEXT
  8
Layer0
 10
9.498012
 20
-4.417157
 40
0.125000
  1
KDS    3/93
 72
     5
 11
10.840012
 21
-4.417157
  0
TEXT
  8
Layer0
 10
9.830982
 20
4.320761
 40
0.125000
  1
00 3/93    RELEASED
 72
     5
 11
12.172982
 21
4.320761
  0
DIMENSION
  8
Layer0
  2
*D2
 10
5.635310
 20
-0.710168
 11
5.635310
 21
-1.908399
 13
7.591204
 23
-3.335168
 14
7.518704
 24
-0.710168
 50
90.000000
  0
DIMENSION
  8
Layer0
  2
*D3
 10
6.879121
 20
-2.060168
 11
6.879121
 21
-2.841258
 13
7.591204
 23
-3.335168
 14
8.147205
 24
-2.060168
 50
-90.000000
  0
DIMENSION
  8
Layer0
  2
*D4
 70
     1
 10
4.884440
 20
-3.555026
 11
3.039292
 21
-3.555026
 13
1.404034
 23
-3.300000
 14
4.884440
 24
-3.300000
 50
-179.999990
  0
DIMENSION
  8
Layer0
  2
*D5
 10
1.313120E-02
 20
-0.570000
 11
1.313114E-02
 21
-1.761017
 13
1.404034
 23
-3.300000
 14
1.427859
 24
-0.570000
 50
89.999998
  0
DIMENSION
  8
Layer0
  2
*D6
 10
0.496582
 20
-2.018000
 11
0.496582
 21
-2.620649
 13
1.404034
 23
-3.300000
 14
2.374441
 24
-2.018000
 50
90.000003
  0
DIMENSION
  8
Layer0
  2
*D7
 70
     1
  1
<>TYP
 10
7.241124
 20
3.485001
 11
7.241124
 21
2.797429
 13
4.159831
 23
3.891001
 14
4.159831
 24
3.485001
 50
90.000000
  0
DIMENSION
  8
Layer0
  2
*D8
 70
     1
  1
<> X .13 DP
 10
5.881585
 20
3.579000
 11
5.881585
 21
2.930067
 13
4.159831
 23
3.797001
 14
4.159831
 24
3.579000
 50
90.000000
  0
DIMENSION
  8
Layer0
  2
*D9
  1
<> TYP
 10
2.524831
 20
-0.213681
 11
1.012161
 21
-0.307431
 13
2.224831
 23
-9.977941E-02
 14
2.524831
 24
-9.267624E-02
  0
DIMENSION
  8
Layer0
  2
*D10
 70
     1
 10
4.009830
 20
4.349668
 11
3.159403
 21
4.349668
 13
2.374830
 23
3.968843
 14
4.009830
 24
3.968843
 50
180.000000
  0
DIMENSION
  8
Layer0
  2
*D11
 10
2.374830
 20
4.349668
 11
1.874525
 21
4.349668
 13
1.499831
 23
4.000000
 14
2.374830
 24
3.968843
 50
180.000000
  0
DIMENSION
  8
Layer0
  2
*D12
 70
     1
 10
1.313122E-02
 20
6.498570E-08
 11
1.313134E-02
 21
2.615381
 13
1.499830
 23
4.000000
 14
1.499830
 24
0.000000
 50
89.999998
  0
DIMENSION
  8
Layer0
  2
*D13
 10
0.496583
 20
3.688000
 11
0.496583
 21
3.875000
 13
1.499830
 23
4.000000
 14
1.961876
 24
3.688000
 50
-90.000004
  0
DIMENSION
  8
Layer0
  2
*D14
 10
0.496582
 20
0.312000
 11
0.496583
 21
2.216342
 13
1.961876
 23
3.688000
 14
1.958000
 24
0.312000
 50
89.999996
  0
INSERT
  8
Layer0
  2
REV-LINESP
 10
14.143983
 20
4.282762
  0
INSERT
  8
Layer0
  2
REV-LINESP
 10
14.143982
 20
4.482762
  0
INSERT
  8
Layer0
  2
BP
 10
6.486982
 20
-0.223489
  0
CIRCLE
  8
Layer0
 10
9.782207
 20
-1.470168
 40
7.000000E-02
  0
CIRCLE
  8
Layer0
 10
9.995207
 20
-1.470168
 40
7.000000E-02
  0
CIRCLE
  8
Layer0
 10
10.208207
 20
-1.470168
 40
7.000000E-02
  0
CIRCLE
  8
Layer0
 10
10.421207
 20
-1.470168
 40
7.000000E-02
  0
CIRCLE
  8
Layer0
 10
10.421207
 20
-1.730168
 40
7.000000E-02
  0
CIRCLE
  8
Layer0
 10
10.208207
 20
-1.730168
 40
7.000000E-02
  0
CIRCLE
  8
Layer0
 10
9.995207
 20
-1.730168
 40
7.000000E-02
  0
CIRCLE
  8
Layer0
 10
9.782207
 20
-1.730168
 40
7.000000E-02
  0
CIRCLE
  8
Layer0
 10
9.782207
 20
-1.990168
 40
7.000000E-02
  0
CIRCLE
  8
Layer0
 10
9.995207
 20
-1.990168
 40
7.000000E-02
  0
CIRCLE
  8
Layer0
 10
10.208207
 20
-1.990168
 40
7.000000E-02
  0
CIRCLE
  8
Layer0
 10
10.421207
 20
-1.990168
 40
7.000000E-02
  0
LINE
  8
Layer0
 10
9.727118
 20
-1.506297
 11
9.727118
 21
-1.426980
  0
LINE
  8
Layer0
 10
9.836206
 20
-1.506297
 11
9.836206
 21
-1.425626
  0
LINE
  8
Layer0
 10
9.727118
 20
-1.506297
 11
9.758698
 21
-1.517430
  0
LINE
  8
Layer0
 10
9.836206
 20
-1.506297
 11
9.805661
 21
-1.517282
  0
ARC
  8
Layer0
 10
9.781972
 20
-1.451412
 40
7.000000E-02
 50
250.580817
 51
289.780720
  0
LINE
  8
Layer0
 10
9.727118
 20
-1.506297
 11
9.836206
 21
-1.498668
  0
LINE
  8
Layer0
 10
9.727118
 20
-1.486248
 11
9.836206
 21
-1.478620
  0
LINE
  8
Layer0
 10
9.727118
 20
-1.466199
 11
9.836206
 21
-1.458571
  0
LINE
  8
Layer0
 10
9.727118
 20
-1.446150
 11
9.836206
 21
-1.438522
  0
LINE
  8
Layer0
 10
9.727860
 20
-1.426049
 11
9.829884
 21
-1.418915
  0
LINE
  8
Layer0
 10
9.940861
 20
-1.426049
 11
10.042884
 21
-1.418915
  0
LINE
  8
Layer0
 10
9.940118
 20
-1.446150
 11
10.049207
 21
-1.438522
  0
LINE
  8
Layer0
 10
9.940118
 20
-1.466199
 11
10.049207
 21
-1.458571
  0
LINE
  8
Layer0
 10
9.940118
 20
-1.486248
 11
10.049207
 21
-1.478620
  0
LINE
  8
Layer0
 10
9.940118
 20
-1.506297
 11
10.049207
 21
-1.498668
  0
ARC
  8
Layer0
 10
9.994972
 20
-1.451412
 40
7.000000E-02
 50
250.580817
 51
289.780720
  0
LINE
  8
Layer0
 10
10.049207
 20
-1.506297
 11
10.018662
 21
-1.517282
  0
LINE
  8
Layer0
 10
9.940118
 20
-1.506297
 11
9.971699
 21
-1.517430
  0
LINE
  8
Layer0
 10
10.049207
 20
-1.506297
 11
10.049207
 21
-1.425626
  0
LINE
  8
Layer0
 10
9.940118
 20
-1.506297
 11
9.940118
 21
-1.426980
  0
LINE
  8
Layer0
 10
10.153118
 20
-1.506297
 11
10.153118
 21
-1.426980
  0
LINE
  8
Layer0
 10
10.262207
 20
-1.506297
 11
10.262207
 21
-1.425626
  0
LINE
  8
Layer0
 10
10.153118
 20
-1.506297
 11
10.184699
 21
-1.517430
  0
LINE
  8
Layer0
 10
10.262207
 20
-1.506297
 11
10.231662
 21
-1.517282
  0
ARC
  8
Layer0
 10
10.207973
 20
-1.451412
 40
7.000000E-02
 50
250.580817
 51
289.780720
  0
LINE
  8
Layer0
 10
10.153118
 20
-1.506297
 11
10.262207
 21
-1.498668
  0
LINE
  8
Layer0
 10
10.153118
 20
-1.486248
 11
10.262207
 21
-1.478620
  0
LINE
  8
Layer0
 10
10.153118
 20
-1.466199
 11
10.262207
 21
-1.458571
  0
LINE
  8
Layer0
 10
10.153118
 20
-1.446150
 11
10.262207
 21
-1.438522
  0
LINE
  8
Layer0
 10
10.153861
 20
-1.426049
 11
10.255884
 21
-1.418915
  0
LINE
  8
Layer0
 10
10.366861
 20
-1.426049
 11
10.468884
 21
-1.418915
  0
LINE
  8
Layer0
 10
10.366118
 20
-1.446150
 11
10.475207
 21
-1.438522
  0
LINE
  8
Layer0
 10
10.366118
 20
-1.466199
 11
10.475207
 21
-1.458571
  0
LINE
  8
Layer0
 10
10.366118
 20
-1.486248
 11
10.475207
 21
-1.478620
  0
LINE
  8
Layer0
 10
10.366118
 20
-1.506297
 11
10.475207
 21
-1.498668
  0
ARC
  8
Layer0
 10
10.420973
 20
-1.451412
 40
7.000000E-02
 50
250.580817
 51
289.780720
  0
LINE
  8
Layer0
 10
10.475207
 20
-1.506297
 11
10.444662
 21
-1.517282
  0
LINE
  8
Layer0
 10
10.366118
 20
-1.506297
 11
10.397699
 21
-1.517430
  0
LINE
  8
Layer0
 10
10.475207
 20
-1.506297
 11
10.475207
 21
-1.425626
  0
LINE
  8
Layer0
 10
10.366118
 20
-1.506297
 11
10.366118
 21
-1.426980
  0
LINE
  8
Layer0
 10
10.366118
 20
-1.766297
 11
10.366118
 21
-1.686980
  0
LINE
  8
Layer0
 10
10.475207
 20
-1.766297
 11
10.475207
 21
-1.685626
  0
LINE
  8
Layer0
 10
10.366118
 20
-1.766297
 11
10.397699
 21
-1.777430
  0
LINE
  8
Layer0
 10
10.475207
 20
-1.766297
 11
10.444662
 21
-1.777282
  0
ARC
  8
Layer0
 10
10.420973
 20
-1.711412
 40
7.000000E-02
 50
250.580817
 51
289.780720
  0
LINE
  8
Layer0
 10
10.366118
 20
-1.766297
 11
10.475207
 21
-1.758669
  0
LINE
  8
Layer0
 10
10.366118
 20
-1.746248
 11
10.475207
 21
-1.738620
  0
LINE
  8
Layer0
 10
10.366118
 20
-1.726199
 11
10.475207
 21
-1.718571
  0
LINE
  8
Layer0
 10
10.366118
 20
-1.706150
 11
10.475207
 21
-1.698522
  0
LINE
  8
Layer0
 10
10.366861
 20
-1.686049
 11
10.468884
 21
-1.678915
  0
LINE
  8
Layer0
 10
10.153861
 20
-1.686049
 11
10.255884
 21
-1.678915
  0
LINE
  8
Layer0
 10
10.153118
 20
-1.706150
 11
10.262207
 21
-1.698522
  0
LINE
  8
Layer0
 10
10.153118
 20
-1.726199
 11
10.262207
 21
-1.718571
  0
LINE
  8
Layer0
 10
10.153118
 20
-1.746248
 11
10.262207
 21
-1.738620
  0
LINE
  8
Layer0
 10
10.153118
 20
-1.766297
 11
10.262207
 21
-1.758669
  0
ARC
  8
Layer0
 10
10.207973
 20
-1.711412
 40
7.000000E-02
 50
250.580817
 51
289.780720
  0
LINE
  8
Layer0
 10
10.262207
 20
-1.766297
 11
10.231662
 21
-1.777282
  0
LINE
  8
Layer0
 10
10.153118
 20
-1.766297
 11
10.184699
 21
-1.777430
  0
LINE
  8
Layer0
 10
10.262207
 20
-1.766297
 11
10.262207
 21
-1.685626
  0
LINE
  8
Layer0
 10
10.153118
 20
-1.766297
 11
10.153118
 21
-1.686980
  0
LINE
  8
Layer0
 10
9.940118
 20
-1.766297
 11
9.940118
 21
-1.686980
  0
LINE
  8
Layer0
 10
10.049207
 20
-1.766297
 11
10.049207
 21
-1.685626
  0
LINE
  8
Layer0
 10
9.940118
 20
-1.766297
 11
9.971699
 21
-1.777430
  0
LINE
  8
Layer0
 10
10.049207
 20
-1.766297
 11
10.018662
 21
-1.777282
  0
ARC
  8
Layer0
 10
9.994972
 20
-1.711412
 40
7.000000E-02
 50
250.580817
 51
289.780720
  0
LINE
  8
Layer0
 10
9.940118
 20
-1.766297
 11
10.049207
 21
-1.758669
  0
LINE
  8
Layer0
 10
9.940118
 20
-1.746248
 11
10.049207
 21
-1.738620
  0
LINE
  8
Layer0
 10
9.940118
 20
-1.726199
 11
10.049207
 21
-1.718571
  0
LINE
  8
Layer0
 10
9.940118
 20
-1.706150
 11
10.049207
 21
-1.698522
  0
LINE
  8
Layer0
 10
9.940861
 20
-1.686049
 11
10.042884
 21
-1.678915
  0
LINE
  8
Layer0
 10
9.727860
 20
-1.686049
 11
9.829884
 21
-1.678915
  0
LINE
  8
Layer0
 10
9.727118
 20
-1.706150
 11
9.836206
 21
-1.698522
  0
LINE
  8
Layer0
 10
9.727118
 20
-1.726199
 11
9.836206
 21
-1.718571
  0
LINE
  8
Layer0
 10
9.727118
 20
-1.746248
 11
9.836206
 21
-1.738620
  0
LINE
  8
Layer0
 10
9.727118
 20
-1.766297
 11
9.836206
 21
-1.758669
  0
ARC
  8
Layer0
 10
9.781972
 20
-1.711412
 40
7.000000E-02
 50
250.580817
 51
289.780720
  0
LINE
  8
Layer0
 10
9.836206
 20
-1.766297
 11
9.805661
 21
-1.777282
  0
LINE
  8
Layer0
 10
9.727118
 20
-1.766297
 11
9.758698
 21
-1.777430
  0
LINE
  8
Layer0
 10
9.836206
 20
-1.766297
 11
9.836206
 21
-1.685626
  0
LINE
  8
Layer0
 10
9.727118
 20
-1.766297
 11
9.727118
 21
-1.686980
  0
LINE
  8
Layer0
 10
9.727118
 20
-2.026297
 11
9.727118
 21
-1.946980
  0
LINE
  8
Layer0
 10
9.836206
 20
-2.026297
 11
9.836206
 21
-1.945626
  0
LINE
  8
Layer0
 10
9.727118
 20
-2.026297
 11
9.758698
 21
-2.037430
  0
LINE
  8
Layer0
 10
9.836206
 20
-2.026297
 11
9.805661
 21
-2.037282
  0
ARC
  8
Layer0
 10
9.781972
 20
-1.971412
 40
7.000000E-02
 50
250.580817
 51
289.780720
  0
LINE
  8
Layer0
 10
9.727118
 20
-2.026297
 11
9.836206
 21
-2.018668
  0
LINE
  8
Layer0
 10
9.727118
 20
-2.006248
 11
9.836206
 21
-1.998620
  0
LINE
  8
Layer0
 10
9.727118
 20
-1.986199
 11
9.836206
 21
-1.978571
  0
LINE
  8
Layer0
 10
9.727118
 20
-1.966150
 11
9.836206
 21
-1.958522
  0
LINE
  8
Layer0
 10
9.727860
 20
-1.946049
 11
9.829884
 21
-1.938915
  0
LINE
  8
Layer0
 10
9.940861
 20
-1.946049
 11
10.042884
 21
-1.938915
  0
LINE
  8
Layer0
 10
9.940118
 20
-1.966150
 11
10.049207
 21
-1.958522
  0
LINE
  8
Layer0
 10
9.940118
 20
-1.986199
 11
10.049207
 21
-1.978571
  0
LINE
  8
Layer0
 10
9.940118
 20
-2.006248
 11
10.049207
 21
-1.998620
  0
LINE
  8
Layer0
 10
9.940118
 20
-2.026297
 11
10.049207
 21
-2.018668
  0
ARC
  8
Layer0
 10
9.994972
 20
-1.971412
 40
7.000000E-02
 50
250.580817
 51
289.780720
  0
LINE
  8
Layer0
 10
10.049207
 20
-2.026297
 11
10.018662
 21
-2.037282
  0
LINE
  8
Layer0
 10
9.940118
 20
-2.026297
 11
9.971699
 21
-2.037430
  0
LINE
  8
Layer0
 10
10.049207
 20
-2.026297
 11
10.049207
 21
-1.945626
  0
LINE
  8
Layer0
 10
9.940118
 20
-2.026297
 11
9.940118
 21
-1.946980
  0
LINE
  8
Layer0
 10
10.153118
 20
-2.026297
 11
10.153118
 21
-1.946980
  0
LINE
  8
Layer0
 10
10.262207
 20
-2.026297
 11
10.262207
 21
-1.945626
  0
LINE
  8
Layer0
 10
10.153118
 20
-2.026297
 11
10.184699
 21
-2.037430
  0
LINE
  8
Layer0
 10
10.262207
 20
-2.026297
 11
10.231662
 21
-2.037282
  0
ARC
  8
Layer0
 10
10.207973
 20
-1.971412
 40
7.000000E-02
 50
250.580817
 51
289.780720
  0
LINE
  8
Layer0
 10
10.153118
 20
-2.026297
 11
10.262207
 21
-2.018668
  0
LINE
  8
Layer0
 10
10.153118
 20
-2.006248
 11
10.262207
 21
-1.998620
  0
LINE
  8
Layer0
 10
10.153118
 20
-1.986199
 11
10.262207
 21
-1.978571
  0
LINE
  8
Layer0
 10
10.153118
 20
-1.966150
 11
10.262207
 21
-1.958522
  0
LINE
  8
Layer0
 10
10.153861
 20
-1.946049
 11
10.255884
 21
-1.938915
  0
LINE
  8
Layer0
 10
10.366861
 20
-1.946049
 11
10.468884
 21
-1.938915
  0
LINE
  8
Layer0
 10
10.366118
 20
-1.966150
 11
10.475207
 21
-1.958522
  0
LINE
  8
Layer0
 10
10.366118
 20
-1.986199
 11
10.475207
 21
-1.978571
  0
LINE
  8
Layer0
 10
10.366118
 20
-2.006248
 11
10.475207
 21
-1.998620
  0
LINE
  8
Layer0
 10
10.366118
 20
-2.026297
 11
10.475207
 21
-2.018668
  0
ARC
  8
Layer0
 10
10.420973
 20
-1.971412
 40
7.000000E-02
 50
250.580817
 51
289.780720
  0
LINE
  8
Layer0
 10
10.475207
 20
-2.026297
 11
10.444662
 21
-2.037282
  0
LINE
  8
Layer0
 10
10.366118
 20
-2.026297
 11
10.397699
 21
-2.037430
  0
LINE
  8
Layer0
 10
10.475207
 20
-2.026297
 11
10.475207
 21
-1.945626
  0
LINE
  8
Layer0
 10
10.366118
 20
-2.026297
 11
10.366118
 21
-1.946980
  0
LINE
  8
Layer0
 10
8.731117
 20
-2.026297
 11
8.731117
 21
-1.946980
  0
LINE
  8
Layer0
 10
8.840206
 20
-2.026297
 11
8.840206
 21
-1.945626
  0
LINE
  8
Layer0
 10
8.731117
 20
-2.026297
 11
8.762698
 21
-2.037430
  0
LINE
  8
Layer0
 10
8.840206
 20
-2.026297
 11
8.809661
 21
-2.037282
  0
ARC
  8
Layer0
 10
8.785972
 20
-1.971412
 40
7.000000E-02
 50
250.580817
 51
289.780720
  0
LINE
  8
Layer0
 10
8.731117
 20
-2.026297
 11
8.840206
 21
-2.018668
  0
LINE
  8
Layer0
 10
8.731117
 20
-2.006248
 11
8.840206
 21
-1.998620
  0
LINE
  8
Layer0
 10
8.731117
 20
-1.986199
 11
8.840206
 21
-1.978571
  0
LINE
  8
Layer0
 10
8.731117
 20
-1.966150
 11
8.840206
 21
-1.958522
  0
LINE
  8
Layer0
 10
8.731860
 20
-1.946049
 11
8.833883
 21
-1.938915
  0
LINE
  8
Layer0
 10
8.518860
 20
-1.946049
 11
8.620883
 21
-1.938915
  0
LINE
  8
Layer0
 10
8.518117
 20
-1.966150
 11
8.627206
 21
-1.958522
  0
LINE
  8
Layer0
 10
8.518117
 20
-1.986199
 11
8.627206
 21
-1.978571
  0
LINE
  8
Layer0
 10
8.518117
 20
-2.006248
 11
8.627206
 21
-1.998620
  0
LINE
  8
Layer0
 10
8.518117
 20
-2.026297
 11
8.627206
 21
-2.018668
  0
ARC
  8
Layer0
 10
8.572971
 20
-1.971412
 40
7.000000E-02
 50
250.580817
 51
289.780720
  0
LINE
  8
Layer0
 10
8.627206
 20
-2.026297
 11
8.596661
 21
-2.037282
  0
LINE
  8
Layer0
 10
8.518117
 20
-2.026297
 11
8.549698
 21
-2.037430
  0
LINE
  8
Layer0
 10
8.627206
 20
-2.026297
 11
8.627206
 21
-1.945626
  0
LINE
  8
Layer0
 10
8.518117
 20
-2.026297
 11
8.518117
 21
-1.946980
  0
LINE
  8
Layer0
 10
8.305117
 20
-2.026297
 11
8.305117
 21
-1.946980
  0
LINE
  8
Layer0
 10
8.414206
 20
-2.026297
 11
8.414206
 21
-1.945626
  0
LINE
  8
Layer0
 10
8.305117
 20
-2.026297
 11
8.336698
 21
-2.037430
  0
LINE
  8
Layer0
 10
8.414206
 20
-2.026297
 11
8.383660
 21
-2.037282
  0
ARC
  8
Layer0
 10
8.359971
 20
-1.971412
 40
7.000000E-02
 50
250.580817
 51
289.780720
  0
LINE
  8
Layer0
 10
8.305117
 20
-2.026297
 11
8.414206
 21
-2.018668
  0
LINE
  8
Layer0
 10
8.305117
 20
-2.006248
 11
8.414206
 21
-1.998620
  0
LINE
  8
Layer0
 10
8.305117
 20
-1.986199
 11
8.414206
 21
-1.978571
  0
LINE
  8
Layer0
 10
8.305117
 20
-1.966150
 11
8.414206
 21
-1.958522
  0
LINE
  8
Layer0
 10
8.305860
 20
-1.946049
 11
8.407883
 21
-1.938915
  0
LINE
  8
Layer0
 10
8.092859
 20
-1.946049
 11
8.194882
 21
-1.938915
  0
LINE
  8
Layer0
 10
8.092116
 20
-1.966150
 11
8.201205
 21
-1.958522
  0
LINE
  8
Layer0
 10
8.092116
 20
-1.986199
 11
8.201205
 21
-1.978571
  0
LINE
  8
Layer0
 10
8.092116
 20
-2.006248
 11
8.201205
 21
-1.998620
  0
LINE
  8
Layer0
 10
8.092116
 20
-2.026297
 11
8.201205
 21
-2.018668
  0
ARC
  8
Layer0
 10
8.146971
 20
-1.971412
 40
7.000000E-02
 50
250.580817
 51
289.780720
  0
LINE
  8
Layer0
 10
8.201205
 20
-2.026297
 11
8.170660
 21
-2.037282
  0
LINE
  8
Layer0
 10
8.092116
 20
-2.026297
 11
8.123697
 21
-2.037430
  0
LINE
  8
Layer0
 10
8.201205
 20
-2.026297
 11
8.201205
 21
-1.945626
  0
LINE
  8
Layer0
 10
8.092116
 20
-2.026297
 11
8.092116
 21
-1.946980
  0
LINE
  8
Layer0
 10
8.092116
 20
-1.766297
 11
8.092116
 21
-1.686980
  0
LINE
  8
Layer0
 10
8.201205
 20
-1.766297
 11
8.201205
 21
-1.685626
  0
LINE
  8
Layer0
 10
8.092116
 20
-1.766297
 11
8.123697
 21
-1.777430
  0
LINE
  8
Layer0
 10
8.201205
 20
-1.766297
 11
8.170660
 21
-1.777282
  0
ARC
  8
Layer0
 10
8.146971
 20
-1.711412
 40
7.000000E-02
 50
250.580817
 51
289.780720
  0
LINE
  8
Layer0
 10
8.092116
 20
-1.766297
 11
8.201205
 21
-1.758669
  0
LINE
  8
Layer0
 10
8.092116
 20
-1.746248
 11
8.201205
 21
-1.738620
  0
LINE
  8
Layer0
 10
8.092116
 20
-1.726199
 11
8.201205
 21
-1.718571
  0
LINE
  8
Layer0
 10
8.092116
 20
-1.706150
 11
8.201205
 21
-1.698522
  0
LINE
  8
Layer0
 10
8.092859
 20
-1.686049
 11
8.194882
 21
-1.678915
  0
LINE
  8
Layer0
 10
8.305860
 20
-1.686049
 11
8.407883
 21
-1.678915
  0
LINE
  8
Layer0
 10
8.305117
 20
-1.706150
 11
8.414206
 21
-1.698522
  0
LINE
  8
Layer0
 10
8.305117
 20
-1.726199
 11
8.414206
 21
-1.718571
  0
LINE
  8
Layer0
 10
8.305117
 20
-1.746248
 11
8.414206
 21
-1.738620
  0
LINE
  8
Layer0
 10
8.305117
 20
-1.766297
 11
8.414206
 21
-1.758669
  0
ARC
  8
Layer0
 10
8.359971
 20
-1.711412
 40
7.000000E-02
 50
250.580817
 51
289.780720
  0
LINE
  8
Layer0
 10
8.414206
 20
-1.766297
 11
8.383660
 21
-1.777282
  0
LINE
  8
Layer0
 10
8.305117
 20
-1.766297
 11
8.336698
 21
-1.777430
  0
LINE
  8
Layer0
 10
8.414206
 20
-1.766297
 11
8.414206
 21
-1.685626
  0
LINE
  8
Layer0
 10
8.305117
 20
-1.766297
 11
8.305117
 21
-1.686980
  0
LINE
  8
Layer0
 10
8.518117
 20
-1.766297
 11
8.518117
 21
-1.686980
  0
LINE
  8
Layer0
 10
8.627206
 20
-1.766297
 11
8.627206
 21
-1.685626
  0
LINE
  8
Layer0
 10
8.518117
 20
-1.766297
 11
8.549698
 21
-1.777430
  0
LINE
  8
Layer0
 10
8.627206
 20
-1.766297
 11
8.596661
 21
-1.777282
  0
ARC
  8
Layer0
 10
8.572971
 20
-1.711412
 40
7.000000E-02
 50
250.580817
 51
289.780720
  0
LINE
  8
Layer0
 10
8.518117
 20
-1.766297
 11
8.627206
 21
-1.758669
  0
LINE
  8
Layer0
 10
8.518117
 20
-1.746248
 11
8.627206
 21
-1.738620
  0
LINE
  8
Layer0
 10
8.518117
 20
-1.726199
 11
8.627206
 21
-1.718571
  0
LINE
  8
Layer0
 10
8.518117
 20
-1.706150
 11
8.627206
 21
-1.698522
  0
LINE
  8
Layer0
 10
8.518860
 20
-1.686049
 11
8.620883
 21
-1.678915
  0
LINE
  8
Layer0
 10
8.731860
 20
-1.686049
 11
8.833883
 21
-1.678915
  0
LINE
  8
Layer0
 10
8.731117
 20
-1.706150
 11
8.840206
 21
-1.698522
  0
LINE
  8
Layer0
 10
8.731117
 20
-1.726199
 11
8.840206
 21
-1.718571
  0
LINE
  8
Layer0
 10
8.731117
 20
-1.746248
 11
8.840206
 21
-1.738620
  0
LINE
  8
Layer0
 10
8.731117
 20
-1.766297
 11
8.840206
 21
-1.758669
  0
ARC
  8
Layer0
 10
8.785972
 20
-1.711412
 40
7.000000E-02
 50
250.580817
 51
289.780720
  0
LINE
  8
Layer0
 10
8.840206
 20
-1.766297
 11
8.809661
 21
-1.777282
  0
LINE
  8
Layer0
 10
8.731117
 20
-1.766297
 11
8.762698
 21
-1.777430
  0
LINE
  8
Layer0
 10
8.840206
 20
-1.766297
 11
8.840206
 21
-1.685626
  0
LINE
  8
Layer0
 10
8.731117
 20
-1.766297
 11
8.731117
 21
-1.686980
  0
LINE
  8
Layer0
 10
8.731117
 20
-1.506297
 11
8.731117
 21
-1.426980
  0
LINE
  8
Layer0
 10
8.840206
 20
-1.506297
 11
8.840206
 21
-1.425626
  0
LINE
  8
Layer0
 10
8.731117
 20
-1.506297
 11
8.762698
 21
-1.517430
  0
LINE
  8
Layer0
 10
8.840206
 20
-1.506297
 11
8.809661
 21
-1.517282
  0
ARC
  8
Layer0
 10
8.785972
 20
-1.451412
 40
7.000000E-02
 50
250.580817
 51
289.780720
  0
LINE
  8
Layer0
 10
8.731117
 20
-1.506297
 11
8.840206
 21
-1.498668
  0
LINE
  8
Layer0
 10
8.731117
 20
-1.486248
 11
8.840206
 21
-1.478620
  0
LINE
  8
Layer0
 10
8.731117
 20
-1.466199
 11
8.840206
 21
-1.458571
  0
LINE
  8
Layer0
 10
8.731117
 20
-1.446150
 11
8.840206
 21
-1.438522
  0
LINE
  8
Layer0
 10
8.731860
 20
-1.426049
 11
8.833883
 21
-1.418915
  0
LINE
  8
Layer0
 10
8.518860
 20
-1.426049
 11
8.620883
 21
-1.418915
  0
LINE
  8
Layer0
 10
8.518117
 20
-1.446150
 11
8.627206
 21
-1.438522
  0
LINE
  8
Layer0
 10
8.518117
 20
-1.466199
 11
8.627206
 21
-1.458571
  0
LINE
  8
Layer0
 10
8.518117
 20
-1.486248
 11
8.627206
 21
-1.478620
  0
LINE
  8
Layer0
 10
8.518117
 20
-1.506297
 11
8.627206
 21
-1.498668
  0
ARC
  8
Layer0
 10
8.572971
 20
-1.451412
 40
7.000000E-02
 50
250.580817
 51
289.780720
  0
LINE
  8
Layer0
 10
8.627206
 20
-1.506297
 11
8.596661
 21
-1.517282
  0
LINE
  8
Layer0
 10
8.518117
 20
-1.506297
 11
8.549698
 21
-1.517430
  0
LINE
  8
Layer0
 10
8.627206
 20
-1.506297
 11
8.627206
 21
-1.425626
  0
LINE
  8
Layer0
 10
8.518117
 20
-1.506297
 11
8.518117
 21
-1.426980
  0
LINE
  8
Layer0
 10
8.305117
 20
-1.506297
 11
8.305117
 21
-1.426980
  0
LINE
  8
Layer0
 10
8.414206
 20
-1.506297
 11
8.414206
 21
-1.425626
  0
LINE
  8
Layer0
 10
8.305117
 20
-1.506297
 11
8.336698
 21
-1.517430
  0
LINE
  8
Layer0
 10
8.414206
 20
-1.506297
 11
8.383660
 21
-1.517282
  0
ARC
  8
Layer0
 10
8.359971
 20
-1.451412
 40
7.000000E-02
 50
250.580817
 51
289.780720
  0
LINE
  8
Layer0
 10
8.305117
 20
-1.506297
 11
8.414206
 21
-1.498668
  0
LINE
  8
Layer0
 10
8.305117
 20
-1.486248
 11
8.414206
 21
-1.478620
  0
LINE
  8
Layer0
 10
8.305117
 20
-1.466199
 11
8.414206
 21
-1.458571
  0
LINE
  8
Layer0
 10
8.305117
 20
-1.446150
 11
8.414206
 21
-1.438522
  0
LINE
  8
Layer0
 10
8.305860
 20
-1.426049
 11
8.407883
 21
-1.418915
  0
LINE
  8
Layer0
 10
8.092859
 20
-1.426049
 11
8.194882
 21
-1.418915
  0
LINE
  8
Layer0
 10
8.092116
 20
-1.446150
 11
8.201205
 21
-1.438522
  0
LINE
  8
Layer0
 10
8.092116
 20
-1.466199
 11
8.201205
 21
-1.458571
  0
LINE
  8
Layer0
 10
8.092116
 20
-1.486248
 11
8.201205
 21
-1.478620
  0
LINE
  8
Layer0
 10
8.092116
 20
-1.506297
 11
8.201205
 21
-1.498668
  0
ARC
  8
Layer0
 10
8.146971
 20
-1.451412
 40
7.000000E-02
 50
250.580817
 51
289.780720
  0
LINE
  8
Layer0
 10
8.201205
 20
-1.506297
 11
8.170660
 21
-1.517282
  0
LINE
  8
Layer0
 10
8.092116
 20
-1.506297
 11
8.123697
 21
-1.517430
  0
LINE
  8
Layer0
 10
8.201205
 20
-1.506297
 11
8.201205
 21
-1.425626
  0
LINE
  8
Layer0
 10
8.092116
 20
-1.506297
 11
8.092116
 21
-1.426980
  0
CIRCLE
  8
Layer0
 10
8.786206
 20
-1.990168
 40
7.000000E-02
  0
CIRCLE
  8
Layer0
 10
8.573206
 20
-1.990168
 40
7.000000E-02
  0
CIRCLE
  8
Layer0
 10
8.360206
 20
-1.990168
 40
7.000000E-02
  0
CIRCLE
  8
Layer0
 10
8.147205
 20
-1.990168
 40
7.000000E-02
  0
CIRCLE
  8
Layer0
 10
8.147205
 20
-1.730168
 40
7.000000E-02
  0
CIRCLE
  8
Layer0
 10
8.360206
 20
-1.730168
 40
7.000000E-02
  0
CIRCLE
  8
Layer0
 10
8.573206
 20
-1.730168
 40
7.000000E-02
  0
CIRCLE
  8
Layer0
 10
8.786206
 20
-1.730168
 40
7.000000E-02
  0
CIRCLE
  8
Layer0
 10
8.786206
 20
-1.470168
 40
7.000000E-02
  0
CIRCLE
  8
Layer0
 10
8.573206
 20
-1.470168
 40
7.000000E-02
  0
CIRCLE
  8
Layer0
 10
8.360206
 20
-1.470168
 40
7.000000E-02
  0
CIRCLE
  8
Layer0
 10
8.147205
 20
-1.470168
 40
7.000000E-02
  0
LINE
  8
Layer0
 10
10.570206
 20
-2.460168
 11
10.570206
 21
-1.210168
  0
LINE
  8
Layer0
 10
9.632206
 20
-2.460168
 11
9.632206
 21
-1.210168
  0
LINE
  8
Layer0
 10
8.935205
 20
-2.460168
 11
8.935205
 21
-1.210168
  0
LINE
  8
Layer0
 10
7.997205
 20
-2.460168
 11
7.997205
 21
-1.210168
  0
LINE
  8
Layer85
 10
7.778704
 20
-0.710168
 11
7.518704
 21
-0.710168
  0
LINE
  8
Layer85
 10
9.286206
 20
-3.335168
 11
7.591204
 21
-3.335168
  0
LINE
  8
Layer85
 10
7.997205
 20
-2.335168
 11
7.792885
 21
-2.335168
  0
LINE
  8
Layer85
 10
7.591204
 20
-3.335168
 11
7.591204
 21
-2.335168
  0
LINE
  8
Layer85
 10
7.706204
 20
-2.835168
 11
7.706204
 21
-2.335168
  0
LINE
  8
Layer85
 10
7.591204
 20
-2.335168
 11
7.605299
 21
-0.720081
  0
LINE
  8
Layer85
 10
7.706204
 20
-2.335168
 11
7.692111
 21
-0.720081
  0
ARC
  8
Layer85
 10
7.615300
 20
-0.720168
 40
1.000000E-02
 50
89.999996
 51
179.499994
  0
ARC
  8
Layer85
 10
7.682110
 20
-0.720168
 40
1.000000E-02
 50
0.500006
 51
89.999996
  0
LINE
  8
Layer85
 10
7.706204
 20
-2.835168
 11
9.101205
 21
-2.835168
  0
LINE
  8
Layer85
 10
9.101205
 20
-2.835168
 11
9.107751
 21
-2.460168
  0
LINE
  8
Layer85
 10
7.778704
 20
-0.710168
 11
7.797249
 21
-2.835168
  0
LINE
  8
Layer85
 10
7.518704
 20
-0.710168
 11
7.503520
 21
-2.450168
  0
LINE
  8
Layer85
 10
7.591204
 20
-2.450168
 11
7.503520
 21
-2.450168
  0
LINE
  8
Layer85
 10
8.935205
 20
-2.460168
 11
7.997205
 21
-2.460168
  0
LINE
  8
Layer85
 10
9.139523
 20
-2.335168
 11
8.935205
 21
-2.335168
  0
LINE
  8
Layer85
 10
9.226204
 20
-2.460168
 11
9.107751
 21
-2.460168
  0
LINE
  8
Layer85
 10
7.591206
 20
-3.335168
 11
7.591206
 21
-2.460168
  0
LINE
  8
Layer85
 10
9.226207
 20
-3.335168
 11
9.226207
 21
-2.460168
  0
LINE
  8
Layer85
 10
9.226205
 20
-3.335168
 11
9.226205
 21
-2.460168
  0
LINE
  8
Layer85
 10
10.861205
 20
-3.335168
 11
10.861205
 21
-2.460168
  0
LINE
  8
Layer85
 10
10.861207
 20
-3.335168
 11
10.861207
 21
-2.460168
  0
LINE
  8
Layer85
 10
11.071613
 20
-3.335168
 11
9.226205
 21
-3.335168
  0
LINE
  8
Layer85
 10
9.226207
 20
-3.335168
 11
9.226207
 21
-2.460168
  0
LINE
  8
Layer85
 10
10.861204
 20
-2.460168
 11
10.742751
 21
-2.460168
  0
LINE
  8
Layer85
 10
10.774523
 20
-2.335168
 11
10.570206
 21
-2.335168
  0
LINE
  8
Layer85
 10
10.570206
 20
-2.460168
 11
9.632206
 21
-2.460168
  0
LINE
  8
Layer85
 10
9.226205
 20
-2.450168
 11
9.138520
 21
-2.450168
  0
LINE
  8
Layer85
 10
9.153705
 20
-0.710168
 11
9.138520
 21
-2.450168
  0
LINE
  8
Layer85
 10
9.413705
 20
-0.710168
 11
9.432250
 21
-2.835168
  0
LINE
  8
Layer85
 10
10.736205
 20
-2.835168
 11
10.742751
 21
-2.460168
  0
LINE
  8
Layer85
 10
9.341205
 20
-2.835168
 11
10.736205
 21
-2.835168
  0
ARC
  8
Layer85
 10
9.317111
 20
-0.720168
 40
1.000000E-02
 50
0.500006
 51
89.999996
  0
ARC
  8
Layer85
 10
9.250300
 20
-0.720168
 40
1.000000E-02
 50
89.999996
 51
179.499994
  0
LINE
  8
Layer85
 10
9.341205
 20
-2.335168
 11
9.327111
 21
-0.720081
  0
LINE
  8
Layer85
 10
9.226205
 20
-2.335168
 11
9.240300
 21
-0.720081
  0
LINE
  8
Layer85
 10
9.341205
 20
-2.835168
 11
9.341205
 21
-2.335168
  0
LINE
  8
Layer85
 10
9.226205
 20
-3.335168
 11
9.226205
 21
-2.335168
  0
LINE
  8
Layer85
 10
9.632206
 20
-2.335168
 11
9.427886
 21
-2.335168
  0
LINE
  8
Layer85
 10
9.413705
 20
-0.710168
 11
9.153705
 21
-0.710168
  0
LINE
  8
Layer85
 10
10.952111
 20
-0.710168
 11
10.885301
 21
-0.710168
  0
LINE
  8
Layer85
 10
10.861205
 20
-3.335168
 11
10.861205
 21
-2.335168
  0
LINE
  8
Layer85
 10
10.976205
 20
-3.335168
 11
10.976205
 21
-2.335168
  0
LINE
  8
Layer85
 10
10.861205
 20
-2.335168
 11
10.875300
 21
-0.720081
  0
LINE
  8
Layer85
 10
10.976205
 20
-2.335168
 11
10.962111
 21
-0.720081
  0
ARC
  8
Layer85
 10
10.885301
 20
-0.720168
 40
1.000000E-02
 50
89.999996
 51
179.499994
  0
ARC
  8
Layer85
 10
10.952111
 20
-0.720168
 40
1.000000E-02
 50
0.500006
 51
89.999996
  0
LINE
  8
Layer85
 10
11.047789
 20
-0.605168
 11
11.071613
 21
-3.335168
  0
LINE
  8
Layer85
 10
10.789620
 20
-0.605168
 11
10.773520
 21
-2.450168
  0
LINE
  8
Layer85
 10
10.861207
 20
-3.335168
 11
10.861207
 21
-2.460168
  0
LINE
  8
Layer85
 10
10.861205
 20
-3.335168
 11
10.861205
 21
-2.460168
  0
LINE
  8
Layer85
 10
10.861207
 20
-3.335168
 11
10.861207
 21
-2.460168
  0
LINE
  8
Layer85
 10
10.861205
 20
-2.450168
 11
10.773520
 21
-2.450168
  0
LINE
  8
Layer0
 10
10.570206
 20
-1.210168
 11
9.632206
 21
-1.210168
  0
LINE
  8
Layer0
 10
8.935205
 20
-1.210168
 11
7.997205
 21
-1.210168
  0
LINE
  8
Layer0
 10
11.047789
 20
-0.605168
 11
10.789620
 21
-0.605168
  0
LINE
  8
Layer0
 10
3.811176
 20
-1.812934
 11
4.210202
 21
-1.785032
  0
LINE
  8
Layer0
 10
3.809442
 20
-1.762933
 11
4.209442
 21
-1.734963
  0
LINE
  8
Layer0
 10
3.809642
 20
-1.712797
 11
4.195160
 21
-1.685839
  0
LINE
  8
Layer0
 10
3.841991
 20
-1.660413
 11
4.155835
 21
-1.638467
  0
LINE
  8
Layer0
 10
3.911061
 20
-1.605461
 11
4.079791
 21
-1.593663
  0
LINE
  8
Layer0
 10
3.809442
 20
-1.863178
 11
4.209442
 21
-1.835207
  0
LINE
  8
Layer0
 10
2.174442
 20
-1.863178
 11
2.574441
 21
-1.835207
  0
LINE
  8
Layer0
 10
3.540831
 20
3.250000
 11
4.478830
 21
3.250000
  0
LINE
  8
Layer0
 10
3.977904
 20
0.750000
 11
4.478830
 21
0.750000
  0
LINE
  8
Layer0
 10
3.540831
 20
0.750000
 11
3.977904
 21
0.750000
  0
CIRCLE
  8
Layer0
 10
4.009830
 20
2.000000
 40
0.250000
  0
CIRCLE
  8
Layer0
 10
4.009830
 20
2.000000
 40
0.200000
  0
LINE
  8
Layer0
 10
4.133574
 20
2.088388
 11
4.098219
 21
2.123744
  0
LINE
  8
Layer0
 10
3.921442
 20
1.876256
 11
3.886087
 21
1.911612
  0
LINE
  8
Layer0
 10
3.886087
 20
2.088388
 11
3.921442
 21
2.123744
  0
LINE
  8
Layer0
 10
4.098219
 20
1.876256
 11
4.133574
 21
1.911612
  0
LINE
  8
Layer0
 10
4.009830
 20
2.035355
 11
4.098219
 21
2.123744
  0
LINE
  8
Layer0
 10
4.045186
 20
2.000000
 11
4.133574
 21
2.088388
  0
LINE
  8
Layer0
 10
4.009830
 20
2.035355
 11
3.921442
 21
2.123744
  0
LINE
  8
Layer0
 10
3.974475
 20
2.000000
 11
3.886087
 21
2.088388
  0
LINE
  8
Layer0
 10
3.886087
 20
1.911612
 11
3.974475
 21
2.000000
  0
LINE
  8
Layer0
 10
4.098219
 20
1.876256
 11
4.009830
 21
1.964645
  0
LINE
  8
Layer0
 10
4.133574
 20
1.911612
 11
4.045186
 21
2.000000
  0
LINE
  8
Layer0
 10
3.921442
 20
1.876256
 11
4.009830
 21
1.964645
  0
LINE
  8
Layer0
 10
3.540831
 20
0.750000
 11
3.540831
 21
3.250000
  0
LINE
  8
Layer0
 10
4.478830
 20
0.750000
 11
4.478830
 21
3.250000
  0
LINE
  8
Layer0
 10
3.540831
 20
2.938000
 11
4.478830
 21
2.938000
  0
LINE
  8
Layer0
 10
3.540831
 20
2.626000
 11
4.478830
 21
2.626000
  0
LINE
  8
Layer0
 10
3.540831
 20
2.125000
 11
3.759830
 21
2.125000
  0
LINE
  8
Layer0
 10
3.759830
 20
2.000000
 11
3.759830
 21
2.125000
  0
LINE
  8
Layer0
 10
4.259830
 20
2.000000
 11
4.259830
 21
2.125000
  0
LINE
  8
Layer0
 10
4.259830
 20
2.125000
 11
4.478830
 21
2.125000
  0
CIRCLE
  8
Layer0
 10
4.009830
 20
1.125000
 40
0.169500
  0
INSERT
  8
Layer0
  2
TOPCAP_09
 10
3.689829
 20
3.094000
  0
INSERT
  8
Layer0
  2
TOPCAP_09
 10
3.902830
 20
3.094000
  0
INSERT
  8
Layer0
  2
TOPCAP_09
 10
4.115830
 20
3.094000
  0
INSERT
  8
Layer0
  2
TOPCAP_09
 10
4.328830
 20
3.094000
  0
INSERT
  8
Layer0
  2
TOPCAP_09
 10
4.328830
 20
2.782000
  0
INSERT
  8
Layer0
  2
TOPCAP_09
 10
4.115830
 20
2.782000
  0
INSERT
  8
Layer0
  2
TOPCAP_09
 10
3.902830
 20
2.782000
  0
INSERT
  8
Layer0
  2
TOPCAP_09
 10
3.689831
 20
2.782000
  0
INSERT
  8
Layer0
  2
TOPCAP_09
 10
3.689831
 20
2.470000
  0
INSERT
  8
Layer0
  2
TOPCAP_09
 10
3.902830
 20
2.470000
  0
INSERT
  8
Layer0
  2
TOPCAP_09
 10
4.115830
 20
2.470000
  0
INSERT
  8
Layer0
  2
TOPCAP_09
 10
4.328830
 20
2.470000
  0
CIRCLE
  8
Layer0
 10
4.009830
 20
1.125000
 40
0.139500
  0
LINE
  8
Layer0
 10
3.901154
 20
1.037537
 11
4.097293
 21
1.233676
  0
LINE
  8
Layer0
 10
3.922368
 20
1.016324
 11
4.118506
 21
1.212463
  0
LINE
  8
Layer0
 10
2.286978
 20
1.016324
 11
2.483117
 21
1.212463
  0
LINE
  8
Layer0
 10
2.265765
 20
1.037537
 11
2.461904
 21
1.233676
  0
CIRCLE
  8
Layer0
 10
2.374441
 20
1.125000
 40
0.139500
  0
INSERT
  8
Layer0
  2
TOPCAP_09
 10
2.693441
 20
2.470000
  0
INSERT
  8
Layer0
  2
TOPCAP_09
 10
2.480441
 20
2.470000
  0
INSERT
  8
Layer0
  2
TOPCAP_09
 10
2.267441
 20
2.470000
  0
INSERT
  8
Layer0
  2
TOPCAP_09
 10
2.054441
 20
2.470000
  0
INSERT
  8
Layer0
  2
TOPCAP_09
 10
2.054441
 20
2.782000
  0
INSERT
  8
Layer0
  2
TOPCAP_09
 10
2.267441
 20
2.782000
  0
INSERT
  8
Layer0
  2
TOPCAP_09
 10
2.480441
 20
2.782000
  0
INSERT
  8
Layer0
  2
TOPCAP_09
 10
2.693441
 20
2.782000
  0
INSERT
  8
Layer0
  2
TOPCAP_09
 10
2.693441
 20
3.094000
  0
INSERT
  8
Layer0
  2
TOPCAP_09
 10
2.480441
 20
3.094000
  0
INSERT
  8
Layer0
  2
TOPCAP_09
 10
2.267441
 20
3.094000
  0
INSERT
  8
Layer0
  2
TOPCAP_09
 10
2.054440
 20
3.094000
  0
CIRCLE
  8
Layer0
 10
2.374441
 20
1.125000
 40
0.169500
  0
LINE
  8
Layer0
 10
2.624441
 20
2.125000
 11
2.843441
 21
2.125000
  0
LINE
  8
Layer0
 10
2.624441
 20
2.000000
 11
2.624441
 21
2.125000
  0
LINE
  8
Layer0
 10
2.124441
 20
2.000000
 11
2.124441
 21
2.125000
  0
LINE
  8
Layer0
 10
1.905441
 20
2.125000
 11
2.124441
 21
2.125000
  0
LINE
  8
Layer0
 10
1.905441
 20
2.626000
 11
2.843441
 21
2.626000
  0
LINE
  8
Layer0
 10
1.905441
 20
2.938000
 11
2.843441
 21
2.938000
  0
LINE
  8
Layer0
 10
2.843441
 20
0.750000
 11
2.843441
 21
3.250000
  0
LINE
  8
Layer0
 10
1.905441
 20
0.750000
 11
1.905441
 21
3.250000
  0
LINE
  8
Layer0
 10
1.427859
 20
-0.570000
 11
1.686026
 21
-0.570000
  0
LINE
  8
Layer0
  6
CENTERLINE
 10
4.159831
 20
-7.846989E-02
 11
4.159831
 21
0.603435
  0
LINE
  8
Layer0
  6
CENTERLINE
 10
3.859831
 20
-7.846989E-02
 11
3.859831
 21
0.603435
  0
LINE
  8
Layer0
  6
CENTERLINE
 10
2.524831
 20
-9.267624E-02
 11
2.524831
 21
0.603435
  0
LINE
  8
Layer0
  6
CENTERLINE
 10
2.224831
 20
-9.977941E-02
 11
2.224831
 21
0.596332
  0
LINE
  8
Layer0
  6
CENTERLINE
 10
4.159831
 20
3.409189
 11
4.159831
 21
4.076888
  0
LINE
  8
Layer0
  6
CENTERLINE
 10
3.859831
 20
3.409189
 11
3.859831
 21
4.076888
  0
LINE
  8
Layer0
  6
CENTERLINE
 10
2.524831
 20
3.402086
 11
2.524831
 21
4.069785
  0
LINE
  8
Layer0
  6
CENTERLINE
 10
2.224831
 20
3.394983
 11
2.224831
 21
4.069785
  0
LINE
  8
Layer0
 10
3.469441
 20
-1.175000
 11
4.549441
 21
-1.175000
  0
LINE
  8
Layer0
 10
3.469441
 20
-2.425000
 11
3.469441
 21
-1.175000
  0
LINE
  8
Layer0
 10
4.549441
 20
-2.425000
 11
4.549441
 21
-1.175000
  0
CIRCLE
  8
Layer0
 10
4.009441
 20
-1.800000
 40
0.218000
  0
LINE
  8
Layer0
 10
3.809441
 20
-1.886741
 11
3.809441
 21
-1.713259
  0
LINE
  8
Layer0
 10
4.209442
 20
-1.886741
 11
4.209442
 21
-1.713259
  0
LINE
  8
Layer0
 10
3.809441
 20
-1.886741
 11
4.209442
 21
-1.886741
  0
LINE
  8
Layer0
 10
3.809441
 20
-1.886741
 11
4.009441
 21
-1.950000
  0
LINE
  8
Layer0
 10
4.009441
 20
-1.950000
 11
4.209442
 21
-1.886741
  0
LINE
  8
Layer0
 10
2.276061
 20
-1.605461
 11
2.444790
 21
-1.593663
  0
LINE
  8
Layer0
 10
2.206991
 20
-1.660413
 11
2.520835
 21
-1.638467
  0
LINE
  8
Layer0
 10
2.174642
 20
-1.712797
 11
2.560160
 21
-1.685839
  0
LINE
  8
Layer0
 10
2.174442
 20
-1.762933
 11
2.574441
 21
-1.734963
  0
LINE
  8
Layer0
 10
2.176176
 20
-1.812934
 11
2.575202
 21
-1.785032
  0
LINE
  8
Layer0
 10
2.374441
 20
-1.950000
 11
2.574441
 21
-1.886741
  0
LINE
  8
Layer0
 10
2.174442
 20
-1.886741
 11
2.374441
 21
-1.950000
  0
LINE
  8
Layer0
 10
2.174442
 20
-1.886741
 11
2.574441
 21
-1.886741
  0
LINE
  8
Layer0
 10
2.574441
 20
-1.886741
 11
2.574441
 21
-1.713259
  0
LINE
  8
Layer0
 10
2.174442
 20
-1.886741
 11
2.174442
 21
-1.713259
  0
CIRCLE
  8
Layer0
 10
2.374441
 20
-1.800000
 40
0.218000
  0
LINE
  8
Layer0
 10
2.914441
 20
-2.425000
 11
2.914441
 21
-1.175000
  0
LINE
  8
Layer0
 10
1.834441
 20
-2.425000
 11
1.834441
 21
-1.175000
  0
LINE
  8
Layer0
 10
1.834441
 20
-1.175000
 11
2.914441
 21
-1.175000
  0
LINE
  8
Layer0
 10
2.286053
 20
1.876256
 11
2.374441
 21
1.964645
  0
LINE
  8
Layer0
 10
2.498185
 20
1.911612
 11
2.409797
 21
2.000000
  0
LINE
  8
Layer0
 10
2.462830
 20
1.876256
 11
2.374441
 21
1.964645
  0
LINE
  8
Layer0
 10
2.250698
 20
1.911612
 11
2.339086
 21
2.000000
  0
LINE
  8
Layer0
 10
2.339086
 20
2.000000
 11
2.250698
 21
2.088388
  0
LINE
  8
Layer0
 10
2.374441
 20
2.035355
 11
2.286053
 21
2.123744
  0
LINE
  8
Layer0
 10
2.409797
 20
2.000000
 11
2.498185
 21
2.088388
  0
LINE
  8
Layer0
 10
2.374441
 20
2.035355
 11
2.462830
 21
2.123744
  0
LINE
  8
Layer0
 10
2.462830
 20
1.876256
 11
2.498185
 21
1.911612
  0
LINE
  8
Layer0
 10
2.250698
 20
2.088388
 11
2.286053
 21
2.123744
  0
LINE
  8
Layer0
 10
2.286053
 20
1.876256
 11
2.250698
 21
1.911612
  0
LINE
  8
Layer0
 10
2.498185
 20
2.088388
 11
2.462830
 21
2.123744
  0
CIRCLE
  8
Layer0
 10
2.374441
 20
2.000000
 40
0.200000
  0
CIRCLE
  8
Layer0
 10
2.374441
 20
2.000000
 40
0.250000
  0
LINE
  8
Layer85
 10
3.249830
 20
1.375000
 11
3.540831
 21
1.375000
  0
LINE
  8
Layer85
 10
3.249830
 20
2.625000
 11
3.540831
 21
2.625000
  0
LINE
  8
Layer85
 10
1.614830
 20
1.375000
 11
1.905441
 21
1.375000
  0
LINE
  8
Layer0
 10
1.905441
 20
0.750000
 11
2.342515
 21
0.750000
  0
LINE
  8
Layer85
 10
1.614830
 20
2.625000
 11
1.905441
 21
2.625000
  0
LINE
  8
Layer0
 10
2.342515
 20
0.750000
 11
2.843441
 21
0.750000
  0
LINE
  8
Layer0
 10
1.905441
 20
3.250000
 11
2.843441
 21
3.250000
  0
LINE
  8
Layer85
 10
1.614830
 20
2.790857
 11
1.614830
 21
0.782568
  0
LINE
  8
Layer85
 10
1.614830
 20
3.633408
 11
1.614830
 21
2.779722
  0
LINE
  8
Layer85
 10
1.499831
 20
3.384602
 11
1.499831
 21
0.565142
  0
LINE
  8
Layer85
 10
1.499831
 20
3.633408
 11
1.499831
 21
3.370548
  0
CIRCLE
  8
Layer85
 10
1.557331
 20
0.250000
 40
5.500000E-02
  0
CIRCLE
  8
Layer85
 10
1.557331
 20
3.750000
 40
5.500000E-02
  0
LINE
  8
Layer85
 10
1.499831
 20
4.000000
 11
1.499831
 21
3.866592
  0
ARC
  8
Layer85
 10
1.557331
 20
3.750000
 40
0.130000
 50
116.251186
 51
243.748852
  0
ARC
  8
Layer85
 10
1.557331
 20
3.750000
 40
0.130000
 50
296.251150
 51
423.748843
  0
ARC
  8
Layer85
 10
1.557331
 20
0.250000
 40
0.130000
 50
296.251150
 51
423.748843
  0
ARC
  8
Layer85
 10
1.557331
 20
0.250000
 40
0.130000
 50
116.251158
 51
243.748852
  0
LINE
  8
Layer85
 10
1.499831
 20
0.571169
 11
1.499831
 21
0.366592
  0
LINE
  8
Layer85
 10
1.499831
 20
0.133408
 11
1.499831
 21
0.000000
  0
LINE
  8
Layer85
 10
1.614830
 20
0.790857
 11
1.614830
 21
0.365995
  0
LINE
  8
Layer85
 10
1.614830
 20
4.000000
 11
1.614830
 21
3.865995
  0
LINE
  8
Layer85
 10
1.614830
 20
0.134005
 11
1.614830
 21
0.000000
  0
LINE
  8
Layer85
 10
1.488830
 20
0.000000
 11
1.614830
 21
0.000000
  0
LINE
  8
Layer85
  6
CENTERLINE
 10
2.374830
 20
0.602844
 11
2.374830
 21
1.652527E-02
  0
LINE
  8
Layer85
  6
CENTERLINE
 10
2.374830
 20
3.968843
 11
2.374830
 21
3.382526
  0
LINE
  8
Layer85
 10
1.958000
 20
0.312000
 11
2.806769
 21
0.312000
  0
LINE
  8
Layer85
 10
1.739830
 20
1.375000
 11
1.739830
 21
0.000000
  0
LINE
  8
Layer85
 10
3.123830
 20
0.000000
 11
3.249830
 21
0.000000
  0
LINE
  8
Layer85
 10
3.249830
 20
0.134005
 11
3.249830
 21
0.000000
  0
LINE
  8
Layer85
 10
3.249830
 20
4.000000
 11
3.249830
 21
3.865995
  0
LINE
  8
Layer85
 10
3.249830
 20
0.790857
 11
3.249830
 21
0.365995
  0
LINE
  8
Layer85
 10
1.499830
 20
4.000000
 11
3.227830
 21
4.000000
  0
LINE
  8
Layer85
 10
3.253123
 20
0.000000
 11
1.499830
 21
0.000000
  0
LINE
  8
Layer85
  6
CENTERLINE
 10
1.961876
 20
3.688000
 11
2.841416
 21
3.688000
  0
LINE
  8
Layer85
 10
2.524831
 20
0.515001
 11
2.224831
 21
0.515001
  0
LINE
  8
Layer85
 10
2.524831
 20
0.421001
 11
2.224831
 21
0.421001
  0
LINE
  8
Layer85
 10
2.524831
 20
0.203001
 11
2.224831
 21
0.203001
  0
LINE
  8
Layer85
 10
2.524831
 20
0.109001
 11
2.224831
 21
0.109001
  0
LINE
  8
Layer85
 10
2.843441
 20
1.375000
 11
3.134831
 21
1.375000
  0
LINE
  8
Layer85
 10
2.843441
 20
2.625000
 11
3.134831
 21
2.625000
  0
LINE
  8
Layer85
 10
2.524831
 20
3.485001
 11
2.224831
 21
3.485001
  0
LINE
  8
Layer85
 10
2.524831
 20
3.579000
 11
2.224831
 21
3.579000
  0
LINE
  8
Layer85
 10
2.524831
 20
3.797001
 11
2.224831
 21
3.797001
  0
LINE
  8
Layer85
 10
2.524831
 20
3.891001
 11
2.224831
 21
3.891001
  0
LINE
  8
Layer85
 10
3.134831
 20
0.133408
 11
3.134831
 21
0.000000
  0
LINE
  8
Layer85
 10
3.134831
 20
0.571169
 11
3.134831
 21
0.366592
  0
ARC
  8
Layer85
 10
3.192331
 20
0.250000
 40
0.130000
 50
116.251158
 51
243.748852
  0
ARC
  8
Layer85
 10
3.192331
 20
0.250000
 40
0.130000
 50
296.251150
 51
423.748843
  0
ARC
  8
Layer85
 10
3.192331
 20
3.750000
 40
0.130000
 50
296.251150
 51
423.748843
  0
ARC
  8
Layer85
 10
3.192331
 20
3.750000
 40
0.130000
 50
116.251186
 51
243.748852
  0
LINE
  8
Layer85
 10
3.134831
 20
4.000000
 11
3.134831
 21
3.866592
  0
ARC
  8
Layer85
 10
2.524831
 20
3.688000
 40
0.203000
 50
270.000001
 51
449.999992
  0
ARC
  8
Layer85
 10
2.524831
 20
3.688000
 40
0.109000
 50
270.000001
 51
449.999992
  0
ARC
  8
Layer85
 10
2.224831
 20
3.688000
 40
0.109000
 50
90.000003
 51
270.000028
  0
ARC
  8
Layer85
 10
2.224831
 20
3.688000
 40
0.203000
 50
90.000003
 51
270.000028
  0
ARC
  8
Layer85
 10
2.224831
 20
0.312000
 40
0.203000
 50
90.000003
 51
270.000028
  0
ARC
  8
Layer85
 10
2.224831
 20
0.312000
 40
0.109000
 50
90.000003
 51
270.000028
  0
ARC
  8
Layer85
 10
2.524831
 20
0.312000
 40
0.109000
 50
269.999973
 51
449.999992
  0
ARC
  8
Layer85
 10
2.524831
 20
0.312000
 40
0.203000
 50
269.999973
 51
449.999992
  0
LINE
  8
Layer85
 10
1.739830
 20
4.000000
 11
1.739830
 21
2.625000
  0
CIRCLE
  8
Layer85
 10
3.192331
 20
3.750000
 40
5.500000E-02
  0
CIRCLE
  8
Layer85
 10
3.192331
 20
0.250000
 40
5.500000E-02
  0
LINE
  8
Layer85
 10
3.134831
 20
3.633408
 11
3.134831
 21
3.370548
  0
LINE
  8
Layer85
 10
3.134831
 20
3.384602
 11
3.134831
 21
0.565142
  0
LINE
  8
Layer85
 10
3.249830
 20
3.633408
 11
3.249830
 21
2.779722
  0
LINE
  8
Layer85
 10
3.249830
 20
2.790857
 11
3.249830
 21
0.782568
  0
LINE
  8
Layer85
 10
1.488830
 20
0.000000
 11
1.614830
 21
0.000000
  0
LINE
  8
Layer85
 10
1.498830
 20
0.000000
 11
1.624830
 21
0.000000
  0
LINE
  8
Layer85
 10
1.614442
 20
-2.415000
 11
1.702127
 21
-2.415000
  0
LINE
  8
Layer85
 10
1.614440
 20
-3.300000
 11
1.614440
 21
-2.425000
  0
LINE
  8
Layer85
 10
1.614442
 20
-3.300000
 11
1.614442
 21
-2.425000
  0
LINE
  8
Layer85
 10
1.614440
 20
-3.300000
 11
1.614440
 21
-2.425000
  0
LINE
  8
Layer85
 10
1.686026
 20
-0.570000
 11
1.702127
 21
-2.415000
  0
LINE
  8
Layer85
 10
1.427859
 20
-0.570000
 11
1.404034
 21
-3.300000
  0
ARC
  8
Layer85
 10
1.523536
 20
-0.685000
 40
1.000000E-02
 50
90.000003
 51
179.499994
  0
ARC
  8
Layer85
 10
1.590347
 20
-0.685000
 40
1.000000E-02
 50
0.499999
 51
90.000003
  0
LINE
  8
Layer85
 10
1.499443
 20
-2.300000
 11
1.513536
 21
-0.684913
  0
LINE
  8
Layer85
 10
1.614442
 20
-2.300000
 11
1.600347
 21
-0.684913
  0
LINE
  8
Layer85
 10
1.499443
 20
-3.300000
 11
1.499443
 21
-2.300000
  0
LINE
  8
Layer85
 10
1.614442
 20
-3.300000
 11
1.614442
 21
-2.300000
  0
LINE
  8
Layer85
 10
1.523536
 20
-0.675000
 11
1.590347
 21
-0.675000
  0
LINE
  8
Layer85
 10
3.061942
 20
-0.675000
 11
3.321943
 21
-0.675000
  0
LINE
  8
Layer85
 10
2.914441
 20
-2.300000
 11
3.047761
 21
-2.300000
  0
LINE
  8
Layer85
 10
3.249442
 20
-3.300000
 11
3.249442
 21
-2.300000
  0
LINE
  8
Layer85
 10
3.134443
 20
-2.800000
 11
3.134443
 21
-2.300000
  0
LINE
  8
Layer85
 10
3.249442
 20
-2.300000
 11
3.235347
 21
-0.684913
  0
LINE
  8
Layer85
 10
3.134443
 20
-2.300000
 11
3.148536
 21
-0.684913
  0
ARC
  8
Layer85
 10
3.225347
 20
-0.685000
 40
1.000000E-02
 50
0.499999
 51
90.000003
  0
ARC
  8
Layer85
 10
3.158536
 20
-0.685000
 40
1.000000E-02
 50
90.000003
 51
179.499994
  0
LINE
  8
Layer85
 10
3.134443
 20
-2.800000
 11
1.739442
 21
-2.800000
  0
LINE
  8
Layer85
 10
1.739442
 20
-2.800000
 11
1.732896
 21
-2.425000
  0
LINE
  8
Layer85
 10
3.061942
 20
-0.675000
 11
3.043397
 21
-2.800000
  0
LINE
  8
Layer85
 10
3.321943
 20
-0.675000
 11
3.337127
 21
-2.415000
  0
LINE
  8
Layer85
 10
3.249442
 20
-2.415000
 11
3.337127
 21
-2.415000
  0
LINE
  8
Layer85
 10
1.834441
 20
-2.425000
 11
2.914441
 21
-2.425000
  0
LINE
  8
Layer85
 10
1.701124
 20
-2.300000
 11
1.834441
 21
-2.300000
  0
LINE
  8
Layer85
 10
1.614443
 20
-2.425000
 11
1.732896
 21
-2.425000
  0
LINE
  8
Layer85
 10
3.249440
 20
-3.300000
 11
3.249440
 21
-2.425000
  0
LINE
  8
Layer85
 10
1.404034
 20
-3.300000
 11
3.249442
 21
-3.300000
  0
LINE
  8
Layer85
 10
1.614440
 20
-3.300000
 11
1.614440
 21
-2.425000
  0
LINE
  8
Layer85
 10
1.614442
 20
-3.300000
 11
1.614442
 21
-2.425000
  0
LINE
  8
Layer85
 10
3.133830
 20
0.000000
 11
3.259830
 21
0.000000
  0
LINE
  8
Layer85
 10
3.123830
 20
0.000000
 11
3.249830
 21
0.000000
  0
LINE
  8
Layer85
 10
3.249442
 20
-3.300000
 11
3.249442
 21
-2.425000
  0
LINE
  8
Layer85
 10
3.249440
 20
-3.300000
 11
3.249440
 21
-2.425000
  0
LINE
  8
Layer85
 10
4.884830
 20
2.790857
 11
4.884830
 21
0.782568
  0
LINE
  8
Layer85
 10
4.884830
 20
3.633408
 11
4.884830
 21
2.779722
  0
LINE
  8
Layer85
 10
4.769831
 20
3.384602
 11
4.769831
 21
0.565142
  0
LINE
  8
Layer85
 10
4.769831
 20
3.633408
 11
4.769831
 21
3.370548
  0
CIRCLE
  8
Layer85
 10
4.827331
 20
0.250000
 40
5.500000E-02
  0
CIRCLE
  8
Layer85
 10
4.827331
 20
3.750000
 40
5.500000E-02
  0
LINE
  8
Layer85
 10
3.374830
 20
4.000000
 11
3.374830
 21
2.625000
  0
ARC
  8
Layer85
 10
4.159831
 20
0.312000
 40
0.203000
 50
269.999973
 51
449.999992
  0
ARC
  8
Layer85
 10
4.159831
 20
0.312000
 40
0.109000
 50
269.999973
 51
449.999992
  0
ARC
  8
Layer85
 10
3.859831
 20
0.312000
 40
0.109000
 50
90.000003
 51
270.000028
  0
ARC
  8
Layer85
 10
3.859831
 20
0.312000
 40
0.203000
 50
90.000003
 51
270.000028
  0
ARC
  8
Layer85
 10
3.859831
 20
3.688000
 40
0.203000
 50
90.000003
 51
270.000028
  0
ARC
  8
Layer85
 10
3.859831
 20
3.688000
 40
0.109000
 50
90.000003
 51
270.000028
  0
ARC
  8
Layer85
 10
4.159831
 20
3.688000
 40
0.109000
 50
270.000001
 51
449.999992
  0
ARC
  8
Layer85
 10
4.159831
 20
3.688000
 40
0.203000
 50
270.000001
 51
449.999992
  0
LINE
  8
Layer85
 10
4.769831
 20
4.000000
 11
4.769831
 21
3.866592
  0
ARC
  8
Layer85
 10
4.827331
 20
3.750000
 40
0.130000
 50
116.251186
 51
243.748852
  0
ARC
  8
Layer85
 10
4.827331
 20
3.750000
 40
0.130000
 50
296.251150
 51
423.748843
  0
ARC
  8
Layer85
 10
4.827331
 20
0.250000
 40
0.130000
 50
296.251150
 51
423.748843
  0
ARC
  8
Layer85
 10
4.827331
 20
0.250000
 40
0.130000
 50
116.251158
 51
243.748852
  0
LINE
  8
Layer85
 10
4.769831
 20
0.571169
 11
4.769831
 21
0.366592
  0
LINE
  8
Layer85
 10
4.769831
 20
0.133408
 11
4.769831
 21
0.000000
  0
LINE
  8
Layer85
 10
4.159831
 20
3.891001
 11
3.859831
 21
3.891001
  0
LINE
  8
Layer85
 10
4.159831
 20
3.797001
 11
3.859831
 21
3.797001
  0
LINE
  8
Layer85
 10
4.159831
 20
3.579000
 11
3.859831
 21
3.579000
  0
LINE
  8
Layer85
 10
4.159831
 20
3.485001
 11
3.859831
 21
3.485001
  0
LINE
  8
Layer85
 10
4.478830
 20
2.625000
 11
4.769831
 21
2.625000
  0
LINE
  8
Layer85
 10
4.478830
 20
1.375000
 11
4.769831
 21
1.375000
  0
LINE
  8
Layer85
 10
4.159831
 20
0.109001
 11
3.859831
 21
0.109001
  0
LINE
  8
Layer85
 10
4.159831
 20
0.203001
 11
3.859831
 21
0.203001
  0
LINE
  8
Layer85
 10
4.159831
 20
0.421001
 11
3.859831
 21
0.421001
  0
LINE
  8
Layer85
 10
4.159831
 20
0.515001
 11
3.859831
 21
0.515001
  0
LINE
  8
Layer85
  6
CENTERLINE
 10
3.596876
 20
3.688000
 11
4.476416
 21
3.688000
  0
LINE
  8
Layer85
 10
4.888123
 20
0.000000
 11
3.134830
 21
0.000000
  0
LINE
  8
Layer85
 10
3.134830
 20
4.000000
 11
4.862830
 21
4.000000
  0
LINE
  8
Layer85
 10
4.884830
 20
0.790857
 11
4.884830
 21
0.365995
  0
LINE
  8
Layer85
 10
4.884830
 20
4.000000
 11
4.884830
 21
3.865995
  0
LINE
  8
Layer85
 10
4.884830
 20
0.134005
 11
4.884830
 21
0.000000
  0
LINE
  8
Layer85
 10
4.758830
 20
0.000000
 11
4.884830
 21
0.000000
  0
LINE
  8
Layer85
 10
3.374830
 20
1.375000
 11
3.374830
 21
0.000000
  0
LINE
  8
Layer85
  6
CENTERLINE
 10
3.580805
 20
0.312000
 11
4.441769
 21
0.312000
  0
LINE
  8
Layer85
  6
CENTERLINE
 10
4.009830
 20
3.968843
 11
4.009830
 21
3.382526
  0
LINE
  8
Layer85
 10
4.884440
 20
-3.300000
 11
4.884440
 21
-2.425000
  0
LINE
  8
Layer85
 10
3.249443
 20
-2.425000
 11
3.367896
 21
-2.425000
  0
LINE
  8
Layer85
 10
3.336124
 20
-2.300000
 11
3.469441
 21
-2.300000
  0
LINE
  8
Layer85
 10
3.469441
 20
-2.425000
 11
4.549441
 21
-2.425000
  0
LINE
  8
Layer85
 10
4.884442
 20
-2.415000
 11
4.972127
 21
-2.415000
  0
LINE
  8
Layer85
 10
4.956943
 20
-0.675000
 11
4.972127
 21
-2.415000
  0
LINE
  8
Layer85
 10
4.696942
 20
-0.675000
 11
4.678397
 21
-2.800000
  0
LINE
  8
Layer85
 10
3.374442
 20
-2.800000
 11
3.367896
 21
-2.425000
  0
LINE
  8
Layer85
 10
4.769443
 20
-2.800000
 11
3.374442
 21
-2.800000
  0
ARC
  8
Layer85
 10
4.793536
 20
-0.685000
 40
1.000000E-02
 50
90.000003
 51
179.499994
  0
ARC
  8
Layer85
 10
4.860347
 20
-0.685000
 40
1.000000E-02
 50
0.499999
 51
90.000003
  0
LINE
  8
Layer85
 10
4.769443
 20
-2.300000
 11
4.783536
 21
-0.684913
  0
LINE
  8
Layer85
 10
4.884442
 20
-2.300000
 11
4.870347
 21
-0.684913
  0
LINE
  8
Layer85
 10
4.769443
 20
-2.800000
 11
4.769443
 21
-2.300000
  0
LINE
  8
Layer85
 10
4.884442
 20
-3.300000
 11
4.884442
 21
-2.300000
  0
LINE
  8
Layer85
 10
4.549441
 20
-2.300000
 11
4.682761
 21
-2.300000
  0
LINE
  8
Layer85
 10
3.189441
 20
-3.300000
 11
4.884442
 21
-3.300000
  0
LINE
  8
Layer85
 10
4.696942
 20
-0.675000
 11
4.956943
 21
-0.675000
  0
LINE
  8
Layer85
  6
CENTERLINE
 10
4.009830
 20
0.602844
 11
4.009830
 21
1.652527E-02
  0
ENDSEC
  0
EOF
